<svg xmlns="http://www.w3.org/2000/svg">
<defs>
<font id="GTAmerica-ExpandedRegular" horiz-adv-x="803" >
  <font-face 
    font-family="GT America Expanded"
    font-weight="400"
    font-stretch="ultra-expanded"
    units-per-em="1000"
    panose-1="0 0 5 7 0 0 0 0 0 0"
    ascent="785"
    descent="-215"
    x-height="500"
    cap-height="710"
    bbox="-551 -239 1622 946"
    underline-thickness="50"
    underline-position="-100"
    unicode-range="U+000D-FB02"
  />
<missing-glyph horiz-adv-x="1018" 
d="M446 663v-47h552v-48h-552v-47h552v-48h-552v-47h552v-47h-552v-48h552v-47h-978v426h978v-47h-552zM80 676h-16l-5 15l-4 -15h-16l13 -9l-5 -15l12 9l13 -9l-5 15zM126 676l13 -9l-5 -15l12 10l13 -10l-5 15l12 9h-15l-5 15l-4 -15h-16zM213 676l13 -9l-5 -15l12 10
l13 -10l-5 15l12 9h-15l-5 15l-4 -15h-16zM300 676l13 -9l-5 -15l12 10l13 -10l-5 15l12 9h-15l-5 15l-5 -15h-15zM427 676h-15l-5 15l-5 -15h-15l12 -9l-4 -15l12 10l13 -10l-5 15zM83 632l12 -9l-4 -14l12 9l12 -9l-4 14l12 9h-15l-5 15l-5 -15h-15zM384 632h-16l-4 15
l-5 -15h-15l12 -9l-5 -14l13 9l12 -9l-5 14zM273 457h94v80h-94v94h-80v-94h-93v-80h93v-93h80v93zM80 589h-16l-5 14l-4 -14h-16l13 -9l-5 -15l12 9l13 -9l-5 15zM126 589l13 -9l-5 -15l12 9l13 -9l-5 15l12 9h-15l-5 14l-4 -14h-16zM300 589l13 -9l-5 -15l12 9l13 -9
l-5 15l12 9h-15l-5 14l-5 -14h-15zM427 589h-15l-5 14l-5 -14h-15l12 -9l-4 -15l12 9l13 -9l-5 15zM80 502h-16l-5 14l-4 -14h-16l13 -10l-5 -14l12 9l13 -9l-5 14zM427 502h-15l-5 14l-5 -14h-15l12 -10l-4 -14l12 9l13 -9l-5 14zM80 414h-16l-5 15l-4 -15h-16l13 -9
l-5 -14l12 9l13 -9l-5 14zM166 414h-15l-5 15l-4 -15h-16l13 -9l-5 -14l12 9l13 -9l-5 14zM340 414h-15l-5 15l-5 -15h-15l13 -9l-5 -14l12 9l13 -9l-5 14zM427 414h-15l-5 15l-5 -15h-15l12 -9l-4 -14l12 9l13 -9l-5 14zM111 362l12 9h-15l-5 14l-5 -14h-15l12 -9l-4 -15
l12 9l12 -9zM371 362l13 9h-16l-4 14l-5 -14h-15l12 -9l-5 -15l13 9l12 -9zM67 318l13 9h-16l-5 15l-4 -15h-16l13 -9l-5 -15l12 9l13 -9zM154 318l12 9h-15l-5 15l-4 -15h-16l13 -9l-5 -15l12 9l13 -9zM241 318l12 9h-15l-5 15l-4 -15h-16l13 -9l-5 -15l12 9l13 -9z

<glyph glyph-name="fi" unicode="fi" horiz-adv-x="835" 
d="M512 425h-236v-425h-96v425h-156v75h156v34q0 102 54.5 151.5t167.5 49.5q56 0 110 -12v-81q-44 11 -107 11q-69 0 -99 -26.5t-30 -88.5v-38h236v-75zM634 500h95v-500h-95v500zM624 707h114v-116h-114v116z" />
    <glyph glyph-name="fl" unicode="fl" horiz-adv-x="845" 
d="M512 425h-236v-425h-96v425h-156v75h156v34q0 102 54.5 151.5t167.5 49.5q56 0 110 -12v-81q-44 11 -107 11q-69 0 -99 -26.5t-30 -88.5v-38h236v-75zM734 0h-95v725h95v-725z" />
    <glyph glyph-name="g_g.liga" unicode="gg" horiz-adv-x="1562" 
d="M615.5 558.5q36.5 22.5 94.5 22.5q19 0 42 -4v-78q-16 4 -45 4q-65 0 -90 -35q34 -23 52 -54.5t18 -70.5q0 -55 -35.5 -96t-102 -63t-156.5 -22q-97 0 -166 26q-60 -15 -60 -52q0 -46 88 -46h280q95 0 143 -35t48 -102q0 -86 -84 -126.5t-262 -40.5q-167 0 -248 33.5
t-81 105.5q0 38 21 62t67 38q-63 26 -63 84q0 73 104 101q-39 23 -60 57t-21 76q0 83 79 130.5t215 47.5q101 0 174 -28q12 43 48.5 65.5zM1420.5 494q-23.5 -9 -34.5 -26q34 -23 52 -54.5t18 -70.5q0 -55 -36 -96t-102.5 -63t-155.5 -22q-91 0 -158 23q-50 -15 -50 -49
q0 -23 21.5 -34.5t67.5 -12.5h280q95 0 143 -34.5t48 -101.5q0 -85 -86 -126t-261 -41q-166 0 -247 34t-81 105q0 37 21 61t66 39q-63 26 -63 84q0 69 92 97q-42 24 -64.5 59t-22.5 78q0 83 79 130.5t215 47.5q101 0 174 -28q12 43 48.5 65.5t94.5 22.5q19 0 42 -4v-78
q-16 4 -46 4q-31 0 -54.5 -9zM536.5 260q52.5 30 52.5 83t-51.5 81.5t-144.5 28.5q-92 0 -144 -28.5t-52 -81.5t52.5 -83t143.5 -30t143.5 30zM1305.5 260q52.5 30 52.5 83t-52 81.5t-144 28.5q-93 0 -144.5 -28.5t-51.5 -81.5t52.5 -83t143.5 -30t143.5 30zM249 8
q-28 0 -52 3q-30 -11 -44.5 -28t-14.5 -42q0 -42 64.5 -63t180.5 -21q127 0 188 21t61 67q0 34 -26.5 48t-86.5 14zM1037 7q-29 0 -53 3q-30 -11 -44 -28t-14 -41q0 -42 64.5 -63t179.5 -21q128 0 189.5 21.5t61.5 66.5q0 33 -26.5 47.5t-87.5 14.5h-270z" />
    <glyph glyph-name=".notdef" horiz-adv-x="1018" 
d="M446 663v-47h552v-48h-552v-47h552v-48h-552v-47h552v-47h-552v-48h552v-47h-978v426h978v-47h-552zM80 676h-16l-5 15l-4 -15h-16l13 -9l-5 -15l12 9l13 -9l-5 15zM126 676l13 -9l-5 -15l12 10l13 -10l-5 15l12 9h-15l-5 15l-4 -15h-16zM213 676l13 -9l-5 -15l12 10
l13 -10l-5 15l12 9h-15l-5 15l-4 -15h-16zM300 676l13 -9l-5 -15l12 10l13 -10l-5 15l12 9h-15l-5 15l-5 -15h-15zM427 676h-15l-5 15l-5 -15h-15l12 -9l-4 -15l12 10l13 -10l-5 15zM83 632l12 -9l-4 -14l12 9l12 -9l-4 14l12 9h-15l-5 15l-5 -15h-15zM384 632h-16l-4 15
l-5 -15h-15l12 -9l-5 -14l13 9l12 -9l-5 14zM273 457h94v80h-94v94h-80v-94h-93v-80h93v-93h80v93zM80 589h-16l-5 14l-4 -14h-16l13 -9l-5 -15l12 9l13 -9l-5 15zM126 589l13 -9l-5 -15l12 9l13 -9l-5 15l12 9h-15l-5 14l-4 -14h-16zM300 589l13 -9l-5 -15l12 9l13 -9
l-5 15l12 9h-15l-5 14l-5 -14h-15zM427 589h-15l-5 14l-5 -14h-15l12 -9l-4 -15l12 9l13 -9l-5 15zM80 502h-16l-5 14l-4 -14h-16l13 -10l-5 -14l12 9l13 -9l-5 14zM427 502h-15l-5 14l-5 -14h-15l12 -10l-4 -14l12 9l13 -9l-5 14zM80 414h-16l-5 15l-4 -15h-16l13 -9
l-5 -14l12 9l13 -9l-5 14zM166 414h-15l-5 15l-4 -15h-16l13 -9l-5 -14l12 9l13 -9l-5 14zM340 414h-15l-5 15l-5 -15h-15l13 -9l-5 -14l12 9l13 -9l-5 14zM427 414h-15l-5 15l-5 -15h-15l12 -9l-4 -14l12 9l13 -9l-5 14zM111 362l12 9h-15l-5 14l-5 -14h-15l12 -9l-4 -15
l12 9l12 -9zM371 362l13 9h-16l-4 14l-5 -14h-15l12 -9l-5 -15l13 9l12 -9zM67 318l13 9h-16l-5 15l-4 -15h-16l13 -9l-5 -15l12 9l13 -9zM154 318l12 9h-15l-5 15l-4 -15h-16l13 -9l-5 -15l12 9l13 -9zM241 318l12 9h-15l-5 15l-4 -15h-16l13 -9l-5 -15l12 9l13 -9z
M328 318l12 9h-15l-5 15l-5 -15h-15l13 -9l-5 -15l12 9l13 -9zM415 318l12 9h-15l-5 15l-5 -15h-15l12 -9l-4 -15l12 9l13 -9zM20 237h977v-48h-977v48zM20 142h978v-47h-978v47zM20 47h978v-47h-978v47z" />
    <glyph glyph-name=".null" horiz-adv-x="0" 
 />
    <glyph glyph-name="nonmarkingreturn" unicode="&#xd;" horiz-adv-x="0" 
 />
    <glyph glyph-name="space" unicode=" " horiz-adv-x="423" 
 />
    <glyph glyph-name="A" unicode="A" horiz-adv-x="946" 
d="M727 157h-509l-85 -157h-114l399 710h110l399 -710h-115zM681 242l-174 323l-33 66h-2l-33 -66l-175 -323h417z" />
    <glyph glyph-name="B" unicode="B" horiz-adv-x="930" 
d="M828 310.5q36 -44.5 36 -113.5q0 -90 -62.5 -143.5t-191.5 -53.5h-494v710h491q82 0 135 -26t77.5 -67.5t24.5 -90.5q0 -58 -33.5 -102t-94.5 -56q76 -13 112 -57.5zM221 625v-221h371q85 0 115.5 32.5t30.5 84.5q0 43 -33 73.5t-113 30.5h-371zM758 201q0 119 -158 119
h-379v-235h378q159 0 159 116z" />
    <glyph glyph-name="C" unicode="C" horiz-adv-x="957" 
d="M245.5 23q-103.5 47 -159.5 133t-56 199q0 112 58 198t163.5 133.5t243.5 47.5q168 0 277.5 -69.5t144.5 -197.5l-111 -12q-28 93 -109 142.5t-207 49.5q-107 0 -186 -35.5t-121.5 -101.5t-42.5 -155q0 -86 44 -152t124 -103t185 -37q122 0 202 44.5t115 131.5l105 -18
q-45 -120 -153.5 -182.5t-273.5 -62.5q-139 0 -242.5 47z" />
    <glyph glyph-name="D" unicode="D" horiz-adv-x="984" 
d="M116 710h405q129 0 226.5 -38.5t151.5 -115.5t54 -189q0 -113 -55.5 -196t-153 -127t-221.5 -44h-407v710zM525 86q151 0 235 72.5t84 208.5q0 129 -90.5 193t-243.5 64h-289v-538h304z" />
    <glyph glyph-name="E" unicode="E" horiz-adv-x="877" 
d="M796 86v-86h-680v710h673v-86h-568v-218h551v-85h-551v-235h575z" />
    <glyph glyph-name="F" unicode="F" horiz-adv-x="841" 
d="M221 624v-220h551v-86h-551v-318h-105v710h673v-86h-568z" />
    <glyph glyph-name="G" unicode="G" horiz-adv-x="993" 
d="M239 23.5q-100 47.5 -154.5 133t-54.5 197.5q0 113 57 199t162 133.5t244 47.5q108 0 195 -28.5t145 -81t81 -122.5l-110 -20q-25 75 -110 120.5t-208 45.5q-105 0 -183.5 -36.5t-121.5 -103t-43 -154.5q0 -86 43 -152.5t122 -103t184 -36.5q99 0 174.5 29t117 79.5
t41.5 112.5v6h-329v85h425v-374h-82l-8 129q-49 -73 -140.5 -113t-214.5 -40q-132 0 -232 47.5z" />
    <glyph glyph-name="H" unicode="H" horiz-adv-x="1025" 
d="M909 0h-106v320h-582v-320h-105v710h105v-304h582v304h106v-710z" />
    <glyph glyph-name="I" unicode="I" horiz-adv-x="337" 
d="M116 0v710h105v-710h-105z" />
    <glyph glyph-name="J" unicode="J" horiz-adv-x="515" 
d="M358 52q-70 -67 -206 -67q-46 0 -75 2.5t-58 8.5v96q35 -6 62.5 -8.5t66.5 -2.5q88 0 131 43t43 149v437h106v-444q0 -147 -70 -214z" />
    <glyph glyph-name="K" unicode="K" horiz-adv-x="940" 
d="M462 386l-241 -192v-194h-105v710h105v-402l511 402h147l-332 -259l365 -451h-136z" />
    <glyph glyph-name="L" unicode="L" horiz-adv-x="796" 
d="M116 710h105v-620h542v-90h-647v710z" />
    <glyph glyph-name="M" unicode="M" horiz-adv-x="1180" 
d="M116 710h162l285 -553q14 -30 22 -55h3q6 19 23 55l289 553h164v-710h-97v562q0 41 2 69h-4q-10 -25 -29 -63l-300 -568h-102l-296 569q-10 20 -24 62h-5q3 -18 3 -69v-562h-96v710z" />
    <glyph glyph-name="N" unicode="N" horiz-adv-x="1019" 
d="M116 710h128l513 -532q37 -37 49 -66h2v86v512h95v-710h-112l-529 546q-33 34 -47 63h-3v-79v-530h-96v710z" />
    <glyph glyph-name="O" unicode="O" horiz-adv-x="995" 
d="M253 23.5q-106 47.5 -164.5 133.5t-58.5 198t58.5 198t164.5 133.5t244 47.5t244 -47.5t164.5 -133.5t58.5 -198t-58.5 -198t-164.5 -133.5t-244 -47.5t-244 47.5zM683 100q81 37 126 103t45 152t-45 152t-126 103t-186 37t-185.5 -37t-125.5 -103t-45 -152t45 -152
t125.5 -103t185.5 -37t186 37z" />
    <glyph glyph-name="P" unicode="P" horiz-adv-x="864" 
d="M712.5 683q59.5 -27 91.5 -77.5t32 -118.5q0 -69 -35.5 -121t-100 -80t-150.5 -28h-329v-258h-105v710h457q80 0 139.5 -27zM680 381.5q47 38.5 47 105.5q0 64 -46 100.5t-127 36.5h-333v-281h332q80 0 127 38.5z" />
    <glyph glyph-name="Q" unicode="Q" horiz-adv-x="995" 
d="M852 -57q47 0 84 5v-93q-39 -6 -75 -6q-77 0 -144 34t-108 102q-52 -9 -112 -9q-138 0 -244 47.5t-164.5 133.5t-58.5 198t58.5 198t164.5 133.5t244 47.5t244 -47.5t164.5 -133.5t58.5 -198q0 -122 -69.5 -213t-191.5 -133q53 -66 149 -66zM186 203q45 -66 125.5 -103
t185.5 -37t186 37t126 103t45 152t-45 152t-126 103t-186 37t-185.5 -37t-125.5 -103t-45 -152t45 -152z" />
    <glyph glyph-name="R" unicode="R" horiz-adv-x="909" 
d="M532 286h-311v-286h-105v710h462q93 0 149.5 -31t80.5 -78t24 -101q0 -68 -44 -125t-138 -76l211 -299h-127zM221 371h338q87 0 125.5 38t38.5 92q0 52 -38 87.5t-125 35.5h-339v-253z" />
    <glyph glyph-name="S" unicode="S" horiz-adv-x="890" 
d="M180.5 36q-107.5 60 -145.5 184l108 23q30 -91 112 -136t221 -45q128 0 188.5 30.5t60.5 95.5q0 55 -42 83t-140 37l-229 21q-122 11 -180.5 58.5t-58.5 135.5q0 101 92 156t261 55q165 0 263 -53.5t139 -161.5l-104 -30q-32 80 -104 120t-197 40q-117 0 -179 -31
t-62 -89q0 -36 16.5 -58t53.5 -34t103 -19l219 -22q136 -14 197 -60.5t61 -137.5q0 -109 -91 -165.5t-269 -56.5q-186 0 -293.5 60z" />
    <glyph glyph-name="T" unicode="T" horiz-adv-x="797" 
d="M787 622h-335v-622h-106v622h-336v88h777v-88z" />
    <glyph glyph-name="U" unicode="U" horiz-adv-x="972" 
d="M193 710v-380q0 -73 35 -133.5t102 -96t157 -35.5t156.5 35.5t101.5 96t35 133.5v380h105v-383q0 -102 -47 -181.5t-136.5 -124.5t-214.5 -45t-215.5 45t-137.5 125t-47 181v383h106z" />
    <glyph glyph-name="V" unicode="V" horiz-adv-x="867" 
d="M0 710h118l289 -551q19 -39 25 -63h3q6 24 25 63l289 551h118l-374 -710h-119z" />
    <glyph glyph-name="W" unicode="W" horiz-adv-x="1281" 
d="M24 710h111l191 -567q2 -7 8.5 -24t7.5 -28h3q2 16 17 52l226 567h105l226 -567q13 -31 17 -52h2q2 10 16 52l191 567h111l-251 -710h-130l-217 551q-15 39 -15 53h-5q0 -14 -15 -53l-218 -551h-129z" />
    <glyph glyph-name="X" unicode="X" horiz-adv-x="903" 
d="M382 367l-350 343h140l245 -246q27 -28 33 -38h3q6 10 33 38l243 246h139l-346 -340l371 -370h-144l-268 276q-21 21 -30 35h-2q-12 -17 -30 -35l-274 -276h-135z" />
    <glyph glyph-name="Y" unicode="Y" horiz-adv-x="855" 
d="M371 255l-372 455h131l276 -341q16 -21 19 -34h2q4 18 18 34l281 341h130l-379 -455v-255h-106v255z" />
    <glyph glyph-name="Z" unicode="Z" horiz-adv-x="856" 
d="M652 624h-571v86h716v-81l-595 -543h620v-86h-765v82z" />
    <glyph glyph-name="Aacute" unicode="&#xc1;" horiz-adv-x="946" 
d="M525 760h-106l154 109h122zM727 157h-509l-85 -157h-114l399 710h110l399 -710h-115zM681 242l-174 323l-33 66h-2l-33 -66l-175 -323h417z" />
    <glyph glyph-name="Abreve" unicode="&#x102;" horiz-adv-x="946" 
d="M344.5 784.5q-52.5 29.5 -58.5 84.5h77q5 -24 33 -40.5t77 -16.5t77 16.5t32 40.5h77q-6 -55 -58 -84.5t-128 -29.5t-128.5 29.5zM727 157h-509l-85 -157h-114l399 710h110l399 -710h-115zM681 242l-174 323l-33 66h-2l-33 -66l-175 -323h417z" />
    <glyph glyph-name="Acircumflex" unicode="&#xc2;" horiz-adv-x="946" 
d="M371 760h-110l155 109h114l154 -109h-109l-102 71zM727 157h-509l-85 -157h-114l399 710h110l399 -710h-115zM681 242l-174 323l-33 66h-2l-33 -66l-175 -323h417z" />
    <glyph glyph-name="Adieresis" unicode="&#xc4;" horiz-adv-x="946" 
d="M377 760h-122v109h122v-109zM690 760h-121v109h121v-109zM727 157h-509l-85 -157h-114l399 710h110l399 -710h-115zM681 242l-174 323l-33 66h-2l-33 -66l-175 -323h417z" />
    <glyph glyph-name="AE" unicode="&#xc6;" horiz-adv-x="1522" 
d="M1441 86v-86h-729v154h-447l-148 -154h-126l699 710h744v-86h-617v-218h600v-85h-600v-235h624zM712 239v380l-365 -380h365z" />
    <glyph glyph-name="AEacute" unicode="&#x1fc;" horiz-adv-x="1522" 
d="M1088 760h-106l153 109h122zM1441 86v-86h-729v154h-447l-148 -154h-126l699 710h744v-86h-617v-218h600v-85h-600v-235h624zM712 239v380l-365 -380h365z" />
    <glyph glyph-name="Agrave" unicode="&#xc0;" horiz-adv-x="946" 
d="M410 760l-169 109h121l154 -109h-106zM727 157h-509l-85 -157h-114l399 710h110l399 -710h-115zM681 242l-174 323l-33 66h-2l-33 -66l-175 -323h417z" />
    <glyph glyph-name="Amacron" unicode="&#x100;" horiz-adv-x="946" 
d="M686 761h-426v66h426v-66zM727 157h-509l-85 -157h-114l399 710h110l399 -710h-115zM681 242l-174 323l-33 66h-2l-33 -66l-175 -323h417z" />
    <glyph glyph-name="Aogonek" unicode="&#x104;" horiz-adv-x="946" 
d="M930 -117q-10 -40 -46 -61.5t-93 -21.5q-52 0 -85.5 25.5t-33.5 64.5q0 87 133 123l-78 144h-509l-85 -157h-114l399 710h110l399 -710h-24q-75 -10 -116 -38.5t-41 -62.5q0 -22 15 -36t38 -14q47 0 66 48zM681 242l-174 323l-33 66h-2l-33 -66l-175 -323h417z" />
    <glyph glyph-name="Aring" unicode="&#xc5;" horiz-adv-x="946" 
d="M390.5 767q-31.5 29 -31.5 75t31.5 75t81.5 29t81.5 -29t31.5 -75t-31.5 -75t-81.5 -29t-81.5 29zM434 881q-15 -15 -15 -39t15 -39t38 -15t38 15t15 39t-15 39t-38 15t-38 -15zM727 157h-509l-85 -157h-114l399 710h110l399 -710h-115zM681 242l-174 323l-33 66h-2
l-33 -66l-175 -323h417z" />
    <glyph glyph-name="Atilde" unicode="&#xc3;" horiz-adv-x="946" 
d="M331.5 800q-18.5 -13 -24.5 -38l-67 13q11 51 47 77.5t93 26.5q33 0 57 -8.5t53 -24.5q24 -13 40 -19t37 -6q28 0 46.5 13.5t24.5 38.5l67 -13q-11 -51 -47 -78t-93 -27q-33 0 -57 8.5t-53 24.5q-24 13 -40 19t-37 6q-28 0 -46.5 -13zM727 157h-509l-85 -157h-114
l399 710h110l399 -710h-115zM681 242l-174 323l-33 66h-2l-33 -66l-175 -323h417z" />
    <glyph glyph-name="Cacute" unicode="&#x106;" horiz-adv-x="957" 
d="M590 869h121l-169 -109h-106zM245.5 23q-103.5 47 -159.5 133t-56 199q0 112 58 198t163.5 133.5t243.5 47.5q168 0 277.5 -69.5t144.5 -197.5l-111 -12q-28 93 -109 142.5t-207 49.5q-107 0 -186 -35.5t-121.5 -101.5t-42.5 -155q0 -86 44 -152t124 -103t185 -37
q122 0 202 44.5t115 131.5l105 -18q-45 -120 -153.5 -182.5t-273.5 -62.5q-139 0 -242.5 47z" />
    <glyph glyph-name="Ccaron" unicode="&#x10c;" horiz-adv-x="957" 
d="M546 755h-114l-154 109h109l102 -70l102 70h110zM245.5 23q-103.5 47 -159.5 133t-56 199q0 112 58 198t163.5 133.5t243.5 47.5q168 0 277.5 -69.5t144.5 -197.5l-111 -12q-28 93 -109 142.5t-207 49.5q-107 0 -186 -35.5t-121.5 -101.5t-42.5 -155q0 -86 44 -152
t124 -103t185 -37q122 0 202 44.5t115 131.5l105 -18q-45 -120 -153.5 -182.5t-273.5 -62.5q-139 0 -242.5 47z" />
    <glyph glyph-name="Ccedilla" unicode="&#xc7;" horiz-adv-x="957" 
d="M695 107.5q80 44.5 115 131.5l105 -18q-43 -113 -141.5 -175t-247.5 -69l-21 -28q22 14 63 14q50 0 78.5 -20.5t28.5 -56.5q0 -39 -38 -63.5t-99 -24.5q-47 0 -81.5 16t-49.5 45l65 13q17 -27 67 -27q29 0 45.5 10.5t16.5 28.5q0 19 -14.5 29.5t-42.5 10.5q-35 0 -61 -16
l-49 12l34 56q-133 3 -232 51t-152.5 132.5t-53.5 195.5q0 112 58 198t163.5 133.5t243.5 47.5q168 0 277.5 -69.5t144.5 -197.5l-111 -12q-28 93 -109 142.5t-207 49.5q-107 0 -186 -35.5t-121.5 -101.5t-42.5 -155q0 -86 44 -152t124 -103t185 -37q122 0 202 44.5z" />
    <glyph glyph-name="Ccircumflex" unicode="&#x108;" horiz-adv-x="957" 
d="M591 760l-102 71l-102 -71h-109l154 109h114l155 -109h-110zM245.5 23q-103.5 47 -159.5 133t-56 199q0 112 58 198t163.5 133.5t243.5 47.5q168 0 277.5 -69.5t144.5 -197.5l-111 -12q-28 93 -109 142.5t-207 49.5q-107 0 -186 -35.5t-121.5 -101.5t-42.5 -155
q0 -86 44 -152t124 -103t185 -37q122 0 202 44.5t115 131.5l105 -18q-45 -120 -153.5 -182.5t-273.5 -62.5q-139 0 -242.5 47z" />
    <glyph glyph-name="Cdotaccent" unicode="&#x10a;" horiz-adv-x="957" 
d="M431 869h115v-109h-115v109zM245.5 23q-103.5 47 -159.5 133t-56 199q0 112 58 198t163.5 133.5t243.5 47.5q168 0 277.5 -69.5t144.5 -197.5l-111 -12q-28 93 -109 142.5t-207 49.5q-107 0 -186 -35.5t-121.5 -101.5t-42.5 -155q0 -86 44 -152t124 -103t185 -37
q122 0 202 44.5t115 131.5l105 -18q-45 -120 -153.5 -182.5t-273.5 -62.5q-139 0 -242.5 47z" />
    <glyph glyph-name="Dcaron" unicode="&#x10e;" horiz-adv-x="984" 
d="M556 755h-114l-154 109h109l102 -70l102 70h110zM116 710h405q129 0 226.5 -38.5t151.5 -115.5t54 -189q0 -113 -55.5 -196t-153 -127t-221.5 -44h-407v710zM525 86q151 0 235 72.5t84 208.5q0 129 -90.5 193t-243.5 64h-289v-538h304z" />
    <glyph glyph-name="Dcroat" unicode="&#x110;" horiz-adv-x="984" 
d="M747.5 671.5q97.5 -38.5 151.5 -115.5t54 -189q0 -113 -55.5 -196t-153 -127t-221.5 -44h-407v331h-97v76h97v303h405q129 0 226.5 -38.5zM760 158.5q84 72.5 84 208.5q0 129 -90.5 193t-243.5 64h-289v-217h317v-76h-317v-245h304q151 0 235 72.5z" />
    <glyph glyph-name="Eacute" unicode="&#xc9;" horiz-adv-x="877" 
d="M524 760h-106l153 109h122zM796 86v-86h-680v710h673v-86h-568v-218h551v-85h-551v-235h575z" />
    <glyph glyph-name="Ebreve" unicode="&#x114;" horiz-adv-x="877" 
d="M342.5 784.5q-52.5 29.5 -58.5 84.5h78q4 -24 32 -40.5t77 -16.5t77 16.5t33 40.5h77q-6 -55 -58.5 -84.5t-128.5 -29.5t-128.5 29.5zM796 86v-86h-680v710h673v-86h-568v-218h551v-85h-551v-235h575z" />
    <glyph glyph-name="Ecaron" unicode="&#x11a;" horiz-adv-x="877" 
d="M414 755l-154 109h109l102 -70l102 70h109l-154 -109h-114zM796 86v-86h-680v710h673v-86h-568v-218h551v-85h-551v-235h575z" />
    <glyph glyph-name="Ecircumflex" unicode="&#xca;" horiz-adv-x="877" 
d="M369 760h-109l154 109h114l154 -109h-109l-102 71zM796 86v-86h-680v710h673v-86h-568v-218h551v-85h-551v-235h575z" />
    <glyph glyph-name="Edieresis" unicode="&#xcb;" horiz-adv-x="877" 
d="M375 760h-121v109h121v-109zM688 760h-121v109h121v-109zM796 86v-86h-680v710h673v-86h-568v-218h551v-85h-551v-235h575z" />
    <glyph glyph-name="Edotaccent" unicode="&#x116;" horiz-adv-x="877" 
d="M528 760h-115v109h115v-109zM796 86v-86h-680v710h673v-86h-568v-218h551v-85h-551v-235h575z" />
    <glyph glyph-name="Egrave" unicode="&#xc8;" horiz-adv-x="877" 
d="M408 760l-169 109h121l154 -109h-106zM796 86v-86h-680v710h673v-86h-568v-218h551v-85h-551v-235h575z" />
    <glyph glyph-name="Emacron" unicode="&#x112;" horiz-adv-x="877" 
d="M684 761h-426v66h426v-66zM796 86v-86h-680v710h673v-86h-568v-218h551v-85h-551v-235h575z" />
    <glyph glyph-name="Eogonek" unicode="&#x118;" horiz-adv-x="877" 
d="M822 -117q-11 -41 -46 -62t-93 -21q-52 0 -85 25.5t-33 64.5q0 72 94 110h-543v710h673v-86h-568v-218h551v-85h-551v-235h575v-86q-75 -10 -116 -38.5t-41 -62.5q0 -22 15 -36t38 -14q47 0 66 48z" />
    <glyph glyph-name="Eth" unicode="&#xd0;" horiz-adv-x="984" 
d="M747.5 671.5q97.5 -38.5 151.5 -115.5t54 -189q0 -113 -55.5 -196t-153 -127t-221.5 -44h-407v331h-97v76h97v303h405q129 0 226.5 -38.5zM760 158.5q84 72.5 84 208.5q0 129 -90.5 193t-243.5 64h-289v-217h317v-76h-317v-245h304q151 0 235 72.5z" />
    <glyph glyph-name="Gbreve" unicode="&#x11e;" horiz-adv-x="993" 
d="M431 828.5q28 -16.5 77 -16.5t77 16.5t33 40.5h77q-6 -55 -58.5 -84.5t-128.5 -29.5t-128 29.5t-58 84.5h77q4 -24 32 -40.5zM239 23.5q-100 47.5 -154.5 133t-54.5 197.5q0 113 57 199t162 133.5t244 47.5q108 0 195 -28.5t145 -81t81 -122.5l-110 -20
q-25 75 -110 120.5t-208 45.5q-105 0 -183.5 -36.5t-121.5 -103t-43 -154.5q0 -86 43 -152.5t122 -103t184 -36.5q99 0 174.5 29t117 79.5t41.5 112.5v6h-329v85h425v-374h-82l-8 129q-49 -73 -140.5 -113t-214.5 -40q-132 0 -232 47.5z" />
    <glyph glyph-name="Gcircumflex" unicode="&#x11c;" horiz-adv-x="993" 
d="M610 760l-102 71l-102 -71h-109l154 109h114l155 -109h-110zM239 23.5q-100 47.5 -154.5 133t-54.5 197.5q0 113 57 199t162 133.5t244 47.5q108 0 195 -28.5t145 -81t81 -122.5l-110 -20q-25 75 -110 120.5t-208 45.5q-105 0 -183.5 -36.5t-121.5 -103t-43 -154.5
q0 -86 43 -152.5t122 -103t184 -36.5q99 0 174.5 29t117 79.5t41.5 112.5v6h-329v85h425v-374h-82l-8 129q-49 -73 -140.5 -113t-214.5 -40q-132 0 -232 47.5z" />
    <glyph glyph-name="uni0122" unicode="&#x122;" horiz-adv-x="993" 
d="M239 23.5q-100 47.5 -154.5 133t-54.5 197.5q0 113 57 199t162 133.5t244 47.5q108 0 195 -28.5t145 -81t81 -122.5l-110 -20q-25 75 -110 120.5t-208 45.5q-105 0 -183.5 -36.5t-121.5 -103t-43 -154.5q0 -86 43 -152.5t122 -103t184 -36.5q99 0 174.5 29t117 79.5
t41.5 112.5v6h-329v85h425v-374h-82l-8 129q-49 -73 -140.5 -113t-214.5 -40q-132 0 -232 47.5zM463 -205q32 12 42.5 26.5t10.5 37.5h-64v86h113v-69q0 -45 -17.5 -71t-64.5 -42z" />
    <glyph glyph-name="Gdotaccent" unicode="&#x120;" horiz-adv-x="993" 
d="M450 869h115v-109h-115v109zM239 23.5q-100 47.5 -154.5 133t-54.5 197.5q0 113 57 199t162 133.5t244 47.5q108 0 195 -28.5t145 -81t81 -122.5l-110 -20q-25 75 -110 120.5t-208 45.5q-105 0 -183.5 -36.5t-121.5 -103t-43 -154.5q0 -86 43 -152.5t122 -103t184 -36.5
q99 0 174.5 29t117 79.5t41.5 112.5v6h-329v85h425v-374h-82l-8 129q-49 -73 -140.5 -113t-214.5 -40q-132 0 -232 47.5z" />
    <glyph glyph-name="Hbar" unicode="&#x126;" horiz-adv-x="1025" 
d="M1006 514h-97v-514h-106v320h-582v-320h-105v514h-98v62h98v134h105v-134h582v134h106v-134h97v-62zM803 514h-582v-108h582v108z" />
    <glyph glyph-name="Hcircumflex" unicode="&#x124;" horiz-adv-x="1025" 
d="M615 760l-102 71l-102 -71h-110l155 109h114l154 -109h-109zM909 0h-106v320h-582v-320h-105v710h105v-304h582v304h106v-710z" />
    <glyph glyph-name="Iacute" unicode="&#xcd;" horiz-adv-x="337" 
d="M217 869h110l-107 -109h-102zM116 0v710h105v-710h-105z" />
    <glyph glyph-name="Ibreve" unicode="&#x12c;" horiz-adv-x="337" 
d="M118.5 828.5q18.5 -16.5 50.5 -16.5t50.5 16.5t20.5 40.5h75q-5 -55 -46 -84.5t-100 -29.5t-100 29.5t-46 84.5h75q2 -24 20.5 -40.5zM116 0v710h105v-710h-105z" />
    <glyph glyph-name="Icircumflex" unicode="&#xce;" horiz-adv-x="337" 
d="M224 760l-55 71l-55 -71h-94l94 109h110l94 -109h-94zM116 0v710h105v-710h-105z" />
    <glyph glyph-name="Idieresis" unicode="&#xcf;" horiz-adv-x="337" 
d="M25 869h118v-109h-118v109zM195 869h118v-109h-118v109zM116 0v710h105v-710h-105z" />
    <glyph glyph-name="Idotaccent" unicode="&#x130;" horiz-adv-x="337" 
d="M111 869h115v-109h-115v109zM116 0v710h105v-710h-105z" />
    <glyph glyph-name="Igrave" unicode="&#xcc;" horiz-adv-x="337" 
d="M117 760l-108 109h111l98 -109h-101zM116 0v710h105v-710h-105z" />
    <glyph glyph-name="IJ" unicode="&#x132;" horiz-adv-x="852" 
d="M116 0v710h105v-710h-105zM695 52q-70 -67 -206 -67q-46 0 -75 2.5t-58 8.5v96q35 -6 62.5 -8.5t66.5 -2.5q88 0 131 43t43 149v437h106v-444q0 -147 -70 -214z" />
    <glyph glyph-name="uni00A40301" horiz-adv-x="515" 
d="M421 869h110l-107 -109h-101zM358 52q-70 -67 -206 -67q-46 0 -75 2.5t-58 8.5v96q35 -6 62.5 -8.5t66.5 -2.5q88 0 131 43t43 149v437h106v-444q0 -147 -70 -214z" />
    <glyph glyph-name="Imacron" unicode="&#x12a;" horiz-adv-x="337" 
d="M45 833h239v-72h-239v72zM116 0v710h105v-710h-105z" />
    <glyph glyph-name="Iogonek" unicode="&#x12e;" horiz-adv-x="337" 
d="M233 -117q-10 -40 -46 -61.5t-93 -21.5q-52 0 -85.5 25.5t-33.5 64.5q0 44 35.5 76t105.5 49v695h105v-710h-15q-75 -10 -115.5 -38.5t-40.5 -62.5q0 -22 15 -36t38 -14q46 0 65 48z" />
    <glyph glyph-name="Itilde" unicode="&#x128;" horiz-adv-x="337" 
d="M187.5 768.5q-14.5 7.5 -32.5 22.5q-14 11 -22 15.5t-18 4.5q-23 0 -26 -38l-59 13q2 43 25 68t59 25q22 0 37.5 -8t32.5 -23q2 -2 10 -8t15 -9t14 -3q23 0 26 39l59 -13q-2 -43 -25 -68t-59 -25q-22 0 -36.5 7.5zM116 0v710h105v-710h-105z" />
    <glyph glyph-name="Jcircumflex" unicode="&#x134;" horiz-adv-x="515" 
d="M428 760l-55 71l-54 -71h-94l93 109h111l93 -109h-94zM358 52q-70 -67 -206 -67q-46 0 -75 2.5t-58 8.5v96q35 -6 62.5 -8.5t66.5 -2.5q88 0 131 43t43 149v437h106v-444q0 -147 -70 -214z" />
    <glyph glyph-name="uni0136" unicode="&#x136;" horiz-adv-x="940" 
d="M462 386l-241 -192v-194h-105v710h105v-402l511 402h147l-332 -259l365 -451h-136zM428 -205q32 12 42.5 26.5t10.5 37.5h-64v86h113v-69q0 -45 -17.5 -71t-64.5 -42z" />
    <glyph glyph-name="Lacute" unicode="&#x139;" horiz-adv-x="796" 
d="M271 869h122l-170 -109h-106zM116 710h105v-620h542v-90h-647v710z" />
    <glyph glyph-name="Lcaron" unicode="&#x13d;" horiz-adv-x="796" 
d="M116 710h105v-620h542v-90h-647v710zM333 563q32 12 42 26t10 35h-63v86h113v-68q0 -44 -17.5 -69.5t-65.5 -40.5z" />
    <glyph glyph-name="uni013B" unicode="&#x13b;" horiz-adv-x="796" 
d="M116 710h105v-620h542v-90h-647v710zM399 -205q32 12 42.5 26.5t10.5 37.5h-64v86h113v-69q0 -45 -17.5 -71t-64.5 -42z" />
    <glyph glyph-name="Ldot" unicode="&#x13f;" horiz-adv-x="796" 
d="M116 710h105v-620h542v-90h-647v710zM554 381h-143v118h143v-118z" />
    <glyph glyph-name="Lslash" unicode="&#x141;" horiz-adv-x="796" 
d="M763 90v-90h-647v287l-128 -54v78l128 54v345h105v-301l315 132v-78l-315 -132v-241h542z" />
    <glyph glyph-name="Nacute" unicode="&#x143;" horiz-adv-x="1019" 
d="M611 869h122l-170 -109h-106zM116 710h128l513 -532q37 -37 49 -66h2v86v512h95v-710h-112l-529 546q-33 34 -47 63h-3v-79v-530h-96v710z" />
    <glyph glyph-name="Ncaron" unicode="&#x147;" horiz-adv-x="1019" 
d="M568 755h-114l-155 109h110l102 -70l102 70h109zM116 710h128l513 -532q37 -37 49 -66h2v86v512h95v-710h-112l-529 546q-33 34 -47 63h-3v-79v-530h-96v710z" />
    <glyph glyph-name="uni0145" unicode="&#x145;" horiz-adv-x="1019" 
d="M116 710h128l513 -532q37 -37 49 -66h2v86v512h95v-710h-112l-529 546q-33 34 -47 63h-3v-79v-530h-96v710zM465 -205q32 12 42.5 26.5t10.5 37.5h-64v86h113v-69q0 -45 -17.5 -71t-64.5 -42z" />
    <glyph glyph-name="Ntilde" unicode="&#xd1;" horiz-adv-x="1019" 
d="M546 763.5q-24 8.5 -53 24.5q-24 13 -40 19t-37 6q-28 0 -46.5 -13t-24.5 -38l-67 13q11 51 47 77.5t93 26.5q33 0 57 -8.5t53 -24.5q24 -13 40 -19t37 -6q28 0 46.5 13.5t23.5 38.5l67 -13q-10 -51 -46 -78t-93 -27q-33 0 -57 8.5zM116 710h128l513 -532q37 -37 49 -66
h2v86v512h95v-710h-112l-529 546q-33 34 -47 63h-3v-79v-530h-96v710z" />
    <glyph glyph-name="Eng" unicode="&#x14a;" horiz-adv-x="1019" 
d="M903 710v-718q0 -107 -59 -157t-179 -50q-61 0 -128 7v90q53 -7 128 -7q139 0 143 125h-17l-529 546q-33 34 -47 63h-3v-79v-530h-96v710h128l513 -532q37 -37 49 -66h2v86v512h95z" />
    <glyph glyph-name="Oacute" unicode="&#xd3;" horiz-adv-x="995" 
d="M598 869h121l-169 -109h-106zM253 23.5q-106 47.5 -164.5 133.5t-58.5 198t58.5 198t164.5 133.5t244 47.5t244 -47.5t164.5 -133.5t58.5 -198t-58.5 -198t-164.5 -133.5t-244 -47.5t-244 47.5zM683 100q81 37 126 103t45 152t-45 152t-126 103t-186 37t-185.5 -37
t-125.5 -103t-45 -152t45 -152t125.5 -103t185.5 -37t186 37z" />
    <glyph glyph-name="Obreve" unicode="&#x14e;" horiz-adv-x="995" 
d="M420 828.5q28 -16.5 77 -16.5t77.5 16.5t32.5 40.5h77q-6 -55 -58.5 -84.5t-128.5 -29.5t-128 29.5t-58 84.5h77q4 -24 32 -40.5zM253 23.5q-106 47.5 -164.5 133.5t-58.5 198t58.5 198t164.5 133.5t244 47.5t244 -47.5t164.5 -133.5t58.5 -198t-58.5 -198t-164.5 -133.5
t-244 -47.5t-244 47.5zM683 100q81 37 126 103t45 152t-45 152t-126 103t-186 37t-185.5 -37t-125.5 -103t-45 -152t45 -152t125.5 -103t185.5 -37t186 37z" />
    <glyph glyph-name="Ocircumflex" unicode="&#xd4;" horiz-adv-x="995" 
d="M599 760l-102 71l-102 -71h-109l154 109h114l155 -109h-110zM253 23.5q-106 47.5 -164.5 133.5t-58.5 198t58.5 198t164.5 133.5t244 47.5t244 -47.5t164.5 -133.5t58.5 -198t-58.5 -198t-164.5 -133.5t-244 -47.5t-244 47.5zM683 100q81 37 126 103t45 152t-45 152
t-126 103t-186 37t-185.5 -37t-125.5 -103t-45 -152t45 -152t125.5 -103t185.5 -37t186 37z" />
    <glyph glyph-name="Odieresis" unicode="&#xd6;" horiz-adv-x="995" 
d="M280 869h121v-109h-121v109zM594 869h121v-109h-121v109zM253 23.5q-106 47.5 -164.5 133.5t-58.5 198t58.5 198t164.5 133.5t244 47.5t244 -47.5t164.5 -133.5t58.5 -198t-58.5 -198t-164.5 -133.5t-244 -47.5t-244 47.5zM683 100q81 37 126 103t45 152t-45 152
t-126 103t-186 37t-185.5 -37t-125.5 -103t-45 -152t45 -152t125.5 -103t185.5 -37t186 37z" />
    <glyph glyph-name="OE" unicode="&#x152;" horiz-adv-x="1512" 
d="M1430 86v-86h-993q-120 0 -212 44t-143.5 127t-51.5 196q0 111 54.5 188.5t150 116t218.5 38.5h970v-86h-567v-218h550v-85h-550v-235h574zM750 86v538h-292q-147 0 -232.5 -64.5t-85.5 -192.5q0 -137 80.5 -209t222.5 -72h307z" />
    <glyph glyph-name="Ograve" unicode="&#xd2;" horiz-adv-x="995" 
d="M434 760l-169 109h122l153 -109h-106zM253 23.5q-106 47.5 -164.5 133.5t-58.5 198t58.5 198t164.5 133.5t244 47.5t244 -47.5t164.5 -133.5t58.5 -198t-58.5 -198t-164.5 -133.5t-244 -47.5t-244 47.5zM683 100q81 37 126 103t45 152t-45 152t-126 103t-186 37
t-185.5 -37t-125.5 -103t-45 -152t45 -152t125.5 -103t185.5 -37t186 37z" />
    <glyph glyph-name="Ohungarumlaut" unicode="&#x150;" horiz-adv-x="995" 
d="M493 869h98l-141 -109h-91zM678 869h98l-141 -109h-90zM253 23.5q-106 47.5 -164.5 133.5t-58.5 198t58.5 198t164.5 133.5t244 47.5t244 -47.5t164.5 -133.5t58.5 -198t-58.5 -198t-164.5 -133.5t-244 -47.5t-244 47.5zM683 100q81 37 126 103t45 152t-45 152t-126 103
t-186 37t-185.5 -37t-125.5 -103t-45 -152t45 -152t125.5 -103t185.5 -37t186 37z" />
    <glyph glyph-name="Omacron" unicode="&#x14c;" horiz-adv-x="995" 
d="M284 827h427v-66h-427v66zM253 23.5q-106 47.5 -164.5 133.5t-58.5 198t58.5 198t164.5 133.5t244 47.5t244 -47.5t164.5 -133.5t58.5 -198t-58.5 -198t-164.5 -133.5t-244 -47.5t-244 47.5zM683 100q81 37 126 103t45 152t-45 152t-126 103t-186 37t-185.5 -37
t-125.5 -103t-45 -152t45 -152t125.5 -103t185.5 -37t186 37z" />
    <glyph glyph-name="Oslash" unicode="&#xd8;" horiz-adv-x="995" 
d="M937.5 493q26.5 -64 26.5 -138q0 -112 -58.5 -198t-164.5 -133.5t-244 -47.5q-91 0 -168.5 21t-137.5 61l-94 -77l-51 52l87 71q-50 49 -76.5 113t-26.5 138q0 112 58.5 198t164.5 133.5t244 47.5q90 0 168 -21t138 -61l93 76l53 -50l-88 -72q50 -49 76.5 -113z
M159.5 253.5q18.5 -47.5 53.5 -84.5l512 419q-93 59 -228 59q-105 0 -185.5 -37t-125.5 -103t-45 -152q0 -54 18.5 -101.5zM683 100q81 37 126 103t45 152q0 54 -18.5 101.5t-53.5 84.5l-512 -419q92 -59 227 -59q105 0 186 37z" />
    <glyph glyph-name="Oslashacute" unicode="&#x1fe;" horiz-adv-x="995" 
d="M550 760h-106l154 109h122zM937.5 493q26.5 -64 26.5 -138q0 -112 -58.5 -198t-164.5 -133.5t-244 -47.5q-91 0 -168.5 21t-137.5 61l-94 -77l-51 52l87 71q-50 49 -76.5 113t-26.5 138q0 112 58.5 198t164.5 133.5t244 47.5q90 0 168 -21t138 -61l93 76l53 -50l-88 -72
q50 -49 76.5 -113zM159.5 253.5q18.5 -47.5 53.5 -84.5l512 419q-93 59 -228 59q-105 0 -185.5 -37t-125.5 -103t-45 -152q0 -54 18.5 -101.5zM683 100q81 37 126 103t45 152q0 54 -18.5 101.5t-53.5 84.5l-512 -419q92 -59 227 -59q105 0 186 37z" />
    <glyph glyph-name="Otilde" unicode="&#xd5;" horiz-adv-x="995" 
d="M534 763q-23 8 -54 24q-22 13 -39.5 19.5t-38.5 6.5q-28 0 -46 -13t-24 -38l-67 13q10 51 46.5 77.5t93.5 26.5q33 0 56.5 -8t52.5 -24q24 -13 40.5 -19.5t37.5 -6.5q28 0 46.5 13.5t23.5 38.5l67 -13q-10 -51 -46.5 -78t-93.5 -27q-32 0 -55 8zM253 23.5
q-106 47.5 -164.5 133.5t-58.5 198t58.5 198t164.5 133.5t244 47.5t244 -47.5t164.5 -133.5t58.5 -198t-58.5 -198t-164.5 -133.5t-244 -47.5t-244 47.5zM683 100q81 37 126 103t45 152t-45 152t-126 103t-186 37t-185.5 -37t-125.5 -103t-45 -152t45 -152t125.5 -103
t185.5 -37t186 37z" />
    <glyph glyph-name="Racute" unicode="&#x154;" horiz-adv-x="909" 
d="M479 760h-106l154 109h122zM532 286h-311v-286h-105v710h462q93 0 149.5 -31t80.5 -78t24 -101q0 -68 -44 -125t-138 -76l211 -299h-127zM221 371h338q87 0 125.5 38t38.5 92q0 52 -38 87.5t-125 35.5h-339v-253z" />
    <glyph glyph-name="Rcaron" unicode="&#x158;" horiz-adv-x="909" 
d="M370 755l-155 109h110l102 -70l102 70h109l-154 -109h-114zM532 286h-311v-286h-105v710h462q93 0 149.5 -31t80.5 -78t24 -101q0 -68 -44 -125t-138 -76l211 -299h-127zM221 371h338q87 0 125.5 38t38.5 92q0 52 -38 87.5t-125 35.5h-339v-253z" />
    <glyph glyph-name="uni0156" unicode="&#x156;" horiz-adv-x="909" 
d="M532 286h-311v-286h-105v710h462q93 0 149.5 -31t80.5 -78t24 -101q0 -68 -44 -125t-138 -76l211 -299h-127zM221 371h338q87 0 125.5 38t38.5 92q0 52 -38 87.5t-125 35.5h-339v-253zM401 -205q32 12 42.5 26.5t10.5 37.5h-64v86h113v-69q0 -45 -17.5 -71t-64.5 -42z
" />
    <glyph glyph-name="Sacute" unicode="&#x15a;" horiz-adv-x="890" 
d="M544 869h122l-170 -109h-106zM180.5 36q-107.5 60 -145.5 184l108 23q30 -91 112 -136t221 -45q128 0 188.5 30.5t60.5 95.5q0 55 -42 83t-140 37l-229 21q-122 11 -180.5 58.5t-58.5 135.5q0 101 92 156t261 55q165 0 263 -53.5t139 -161.5l-104 -30q-32 80 -104 120
t-197 40q-117 0 -179 -31t-62 -89q0 -36 16.5 -58t53.5 -34t103 -19l219 -22q136 -14 197 -60.5t61 -137.5q0 -109 -91 -165.5t-269 -56.5q-186 0 -293.5 60z" />
    <glyph glyph-name="Scaron" unicode="&#x160;" horiz-adv-x="890" 
d="M501 755h-114l-155 109h110l102 -70l102 70h109zM180.5 36q-107.5 60 -145.5 184l108 23q30 -91 112 -136t221 -45q128 0 188.5 30.5t60.5 95.5q0 55 -42 83t-140 37l-229 21q-122 11 -180.5 58.5t-58.5 135.5q0 101 92 156t261 55q165 0 263 -53.5t139 -161.5l-104 -30
q-32 80 -104 120t-197 40q-117 0 -179 -31t-62 -89q0 -36 16.5 -58t53.5 -34t103 -19l219 -22q136 -14 197 -60.5t61 -137.5q0 -109 -91 -165.5t-269 -56.5q-186 0 -293.5 60z" />
    <glyph glyph-name="Scedilla" unicode="&#x15e;" horiz-adv-x="890" 
d="M745 33.5q-89 -56.5 -264 -57.5l-20 -27q22 14 63 14q50 0 78.5 -20.5t28.5 -56.5q0 -39 -38 -63.5t-99 -24.5q-47 0 -81.5 16t-49.5 45l65 13q17 -27 67 -27q29 0 45.5 10.5t16.5 28.5q0 40 -58 40q-34 0 -60 -16l-50 12l35 57q-162 7 -258 67t-131 176l108 23
q30 -91 112 -136t221 -45q128 0 188.5 30.5t60.5 95.5q0 55 -42 83t-140 37l-229 21q-122 11 -180.5 58.5t-58.5 135.5q0 101 92 156t261 55q165 0 263 -53.5t139 -161.5l-104 -30q-32 80 -104 120t-197 40q-117 0 -179 -31t-62 -89q0 -36 16.5 -58t53.5 -34t103 -19
l219 -22q136 -14 197 -60.5t61 -137.5q0 -108 -89 -164.5z" />
    <glyph glyph-name="Scircumflex" unicode="&#x15c;" horiz-adv-x="890" 
d="M546 760l-102 71l-102 -71h-110l155 109h114l154 -109h-109zM180.5 36q-107.5 60 -145.5 184l108 23q30 -91 112 -136t221 -45q128 0 188.5 30.5t60.5 95.5q0 55 -42 83t-140 37l-229 21q-122 11 -180.5 58.5t-58.5 135.5q0 101 92 156t261 55q165 0 263 -53.5
t139 -161.5l-104 -30q-32 80 -104 120t-197 40q-117 0 -179 -31t-62 -89q0 -36 16.5 -58t53.5 -34t103 -19l219 -22q136 -14 197 -60.5t61 -137.5q0 -109 -91 -165.5t-269 -56.5q-186 0 -293.5 60z" />
    <glyph glyph-name="uni0218" unicode="&#x218;" horiz-adv-x="890" 
d="M180.5 36q-107.5 60 -145.5 184l108 23q30 -91 112 -136t221 -45q128 0 188.5 30.5t60.5 95.5q0 55 -42 83t-140 37l-229 21q-122 11 -180.5 58.5t-58.5 135.5q0 101 92 156t261 55q165 0 263 -53.5t139 -161.5l-104 -30q-32 80 -104 120t-197 40q-117 0 -179 -31
t-62 -89q0 -36 16.5 -58t53.5 -34t103 -19l219 -22q136 -14 197 -60.5t61 -137.5q0 -109 -91 -165.5t-269 -56.5q-186 0 -293.5 60zM426 -205q32 12 42.5 26.5t10.5 37.5h-64v86h113v-69q0 -45 -17.5 -71t-64.5 -42z" />
    <glyph glyph-name="Tbar" unicode="&#x166;" horiz-adv-x="797" 
d="M452 622v-178h249v-62h-249v-382h-106v382h-249v62h249v178h-336v88h777v-88h-335z" />
    <glyph glyph-name="Tcaron" unicode="&#x164;" horiz-adv-x="797" 
d="M342 755l-154 109h109l102 -70l102 70h110l-155 -109h-114zM787 622h-335v-622h-106v622h-336v88h777v-88z" />
    <glyph glyph-name="uni0162" unicode="&#x162;" horiz-adv-x="797" 
d="M426 0l-38 -51q23 14 63 14q50 0 78.5 -20.5t28.5 -56.5q0 -39 -38 -63.5t-98 -24.5q-48 0 -82 16t-50 45l65 13q17 -27 67 -27q29 0 45.5 10.5t16.5 28.5q0 19 -14.5 29.5t-42.5 10.5q-35 0 -61 -16l-49 12l50 80h-21v622h-336v88h777v-88h-335v-622h-26z" />
    <glyph glyph-name="uni021A" unicode="&#x21a;" horiz-adv-x="797" 
d="M787 622h-335v-622h-106v622h-336v88h777v-88zM354 -205q32 12 42.5 26.5t10.5 37.5h-64v86h113v-69q0 -45 -17.5 -71t-64.5 -42z" />
    <glyph glyph-name="Thorn" unicode="&#xde;" horiz-adv-x="806" 
d="M709.5 533.5q68.5 -60.5 68.5 -163.5t-68.5 -164t-187.5 -61h-301v-145h-105v710h105v-116h301q119 0 187.5 -60.5zM625 267.5q41 36.5 41 102.5q0 65 -41 102t-118 37h-286v-278h286q77 0 118 36.5z" />
    <glyph glyph-name="Uacute" unicode="&#xda;" horiz-adv-x="972" 
d="M587 869h122l-170 -109h-106zM193 710v-380q0 -73 35 -133.5t102 -96t157 -35.5t156.5 35.5t101.5 96t35 133.5v380h105v-383q0 -102 -47 -181.5t-136.5 -124.5t-214.5 -45t-215.5 45t-137.5 125t-47 181v383h106z" />
    <glyph glyph-name="Ubreve" unicode="&#x16c;" horiz-adv-x="972" 
d="M409.5 828.5q28.5 -16.5 77.5 -16.5t77 16.5t32 40.5h77q-6 -55 -58 -84.5t-128 -29.5t-128.5 29.5t-58.5 84.5h77q4 -24 32.5 -40.5zM193 710v-380q0 -73 35 -133.5t102 -96t157 -35.5t156.5 35.5t101.5 96t35 133.5v380h105v-383q0 -102 -47 -181.5t-136.5 -124.5
t-214.5 -45t-215.5 45t-137.5 125t-47 181v383h106z" />
    <glyph glyph-name="Ucircumflex" unicode="&#xdb;" horiz-adv-x="972" 
d="M589 760l-102 71l-102 -71h-110l155 109h114l154 -109h-109zM193 710v-380q0 -73 35 -133.5t102 -96t157 -35.5t156.5 35.5t101.5 96t35 133.5v380h105v-383q0 -102 -47 -181.5t-136.5 -124.5t-214.5 -45t-215.5 45t-137.5 125t-47 181v383h106z" />
    <glyph glyph-name="Udieresis" unicode="&#xdc;" horiz-adv-x="972" 
d="M269 869h121v-109h-121v109zM583 869h121v-109h-121v109zM193 710v-380q0 -73 35 -133.5t102 -96t157 -35.5t156.5 35.5t101.5 96t35 133.5v380h105v-383q0 -102 -47 -181.5t-136.5 -124.5t-214.5 -45t-215.5 45t-137.5 125t-47 181v383h106z" />
    <glyph glyph-name="Ugrave" unicode="&#xd9;" horiz-adv-x="972" 
d="M424 760l-170 109h122l154 -109h-106zM193 710v-380q0 -73 35 -133.5t102 -96t157 -35.5t156.5 35.5t101.5 96t35 133.5v380h105v-383q0 -102 -47 -181.5t-136.5 -124.5t-214.5 -45t-215.5 45t-137.5 125t-47 181v383h106z" />
    <glyph glyph-name="Uhungarumlaut" unicode="&#x170;" horiz-adv-x="972" 
d="M482 869h98l-141 -109h-90zM667 869h98l-140 -109h-91zM193 710v-380q0 -73 35 -133.5t102 -96t157 -35.5t156.5 35.5t101.5 96t35 133.5v380h105v-383q0 -102 -47 -181.5t-136.5 -124.5t-214.5 -45t-215.5 45t-137.5 125t-47 181v383h106z" />
    <glyph glyph-name="Umacron" unicode="&#x16a;" horiz-adv-x="972" 
d="M273 827h427v-66h-427v66zM193 710v-380q0 -73 35 -133.5t102 -96t157 -35.5t156.5 35.5t101.5 96t35 133.5v380h105v-383q0 -102 -47 -181.5t-136.5 -124.5t-214.5 -45t-215.5 45t-137.5 125t-47 181v383h106z" />
    <glyph glyph-name="Uogonek" unicode="&#x172;" horiz-adv-x="972" 
d="M885 710v-383q0 -117 -61 -203.5t-174 -123.5h-1q-36 -11 -72 -17q-40 -15 -61.5 -37.5t-21.5 -46.5q0 -22 15 -36t38 -14q46 0 65 48l65 -14q-10 -40 -46 -61.5t-93 -21.5q-52 0 -85.5 25.5t-33.5 64.5q0 53 49 86q-120 4 -206 50t-130.5 124t-44.5 177v383h106v-380
q0 -73 35 -133.5t102 -96t157 -35.5t156.5 35.5t101.5 96t35 133.5v380h105z" />
    <glyph glyph-name="Uring" unicode="&#x16e;" horiz-adv-x="972" 
d="M404.5 767q-31.5 29 -31.5 75t31.5 75t81.5 29t81 -29t31 -75t-31 -75t-81 -29t-81.5 29zM523.5 803q14.5 15 14.5 39t-14.5 39t-37.5 15q-24 0 -38.5 -15t-14.5 -39t14.5 -39t38.5 -15q23 0 37.5 15zM193 710v-380q0 -73 35 -133.5t102 -96t157 -35.5t156.5 35.5
t101.5 96t35 133.5v380h105v-383q0 -102 -47 -181.5t-136.5 -124.5t-214.5 -45t-215.5 45t-137.5 125t-47 181v383h106z" />
    <glyph glyph-name="Utilde" unicode="&#x168;" horiz-adv-x="972" 
d="M522 763.5q-24 8.5 -53 24.5q-24 13 -40 19t-37 6q-28 0 -46.5 -13t-24.5 -38l-67 13q11 51 47 77.5t93 26.5q33 0 57 -8.5t53 -24.5q24 -13 40 -19t37 -6q28 0 46.5 13.5t23.5 38.5l67 -13q-10 -51 -46 -78t-93 -27q-33 0 -57 8.5zM193 710v-380q0 -73 35 -133.5
t102 -96t157 -35.5t156.5 35.5t101.5 96t35 133.5v380h105v-383q0 -102 -47 -181.5t-136.5 -124.5t-214.5 -45t-215.5 45t-137.5 125t-47 181v383h106z" />
    <glyph glyph-name="Wacute" unicode="&#x1e82;" horiz-adv-x="1281" 
d="M741 869h122l-170 -109h-106zM24 710h111l191 -567q2 -7 8.5 -24t7.5 -28h3q2 16 17 52l226 567h105l226 -567q13 -31 17 -52h2q2 10 16 52l191 567h111l-251 -710h-130l-217 551q-15 39 -15 53h-5q0 -14 -15 -53l-218 -551h-129z" />
    <glyph glyph-name="Wcircumflex" unicode="&#x174;" horiz-adv-x="1281" 
d="M743 760l-102 71l-102 -71h-110l155 109h114l154 -109h-109zM24 710h111l191 -567q2 -7 8.5 -24t7.5 -28h3q2 16 17 52l226 567h105l226 -567q13 -31 17 -52h2q2 10 16 52l191 567h111l-251 -710h-130l-217 551q-15 39 -15 53h-5q0 -14 -15 -53l-218 -551h-129z" />
    <glyph glyph-name="Wdieresis" unicode="&#x1e84;" horiz-adv-x="1281" 
d="M423 869h122v-109h-122v109zM737 869h121v-109h-121v109zM24 710h111l191 -567q2 -7 8.5 -24t7.5 -28h3q2 16 17 52l226 567h105l226 -567q13 -31 17 -52h2q2 10 16 52l191 567h111l-251 -710h-130l-217 551q-15 39 -15 53h-5q0 -14 -15 -53l-218 -551h-129z" />
    <glyph glyph-name="Wgrave" unicode="&#x1e80;" horiz-adv-x="1281" 
d="M578 760l-169 109h121l154 -109h-106zM24 710h111l191 -567q2 -7 8.5 -24t7.5 -28h3q2 16 17 52l226 567h105l226 -567q13 -31 17 -52h2q2 10 16 52l191 567h111l-251 -710h-130l-217 551q-15 39 -15 53h-5q0 -14 -15 -53l-218 -551h-129z" />
    <glyph glyph-name="Yacute" unicode="&#xdd;" horiz-adv-x="855" 
d="M528 869h122l-169 -109h-106zM371 255l-372 455h131l276 -341q16 -21 19 -34h2q4 18 18 34l281 341h130l-379 -455v-255h-106v255z" />
    <glyph glyph-name="Ycircumflex" unicode="&#x176;" horiz-adv-x="855" 
d="M530 760l-102 71l-102 -71h-109l154 109h114l155 -109h-110zM371 255l-372 455h131l276 -341q16 -21 19 -34h2q4 18 18 34l281 341h130l-379 -455v-255h-106v255z" />
    <glyph glyph-name="Ydieresis" unicode="&#x178;" horiz-adv-x="855" 
d="M211 869h121v-109h-121v109zM524 869h121v-109h-121v109zM371 255l-372 455h131l276 -341q16 -21 19 -34h2q4 18 18 34l281 341h130l-379 -455v-255h-106v255z" />
    <glyph glyph-name="Ygrave" unicode="&#x1ef2;" horiz-adv-x="855" 
d="M365 760l-169 109h121l154 -109h-106zM371 255l-372 455h131l276 -341q16 -21 19 -34h2q4 18 18 34l281 341h130l-379 -455v-255h-106v255z" />
    <glyph glyph-name="Zacute" unicode="&#x179;" horiz-adv-x="856" 
d="M535 869h122l-170 -109h-106zM652 624h-571v86h716v-81l-595 -543h620v-86h-765v82z" />
    <glyph glyph-name="Zcaron" unicode="&#x17d;" horiz-adv-x="856" 
d="M492 755h-114l-155 109h110l102 -70l102 70h109zM652 624h-571v86h716v-81l-595 -543h620v-86h-765v82z" />
    <glyph glyph-name="Zdotaccent" unicode="&#x17b;" horiz-adv-x="856" 
d="M377 869h115v-109h-115v109zM652 624h-571v86h716v-81l-595 -543h620v-86h-765v82z" />
    <glyph glyph-name="a" unicode="a" horiz-adv-x="816" 
d="M124.5 20.5q-67.5 39.5 -67.5 110.5q0 34 13.5 62t39.5 47q30 22 75.5 34t134.5 17l312 18v10q0 60 -57 93.5t-158 33.5q-103 0 -163.5 -29t-72.5 -84h-105q8 55 51.5 97t118 65.5t171.5 23.5q153 0 232 -53.5t79 -157.5v-128q0 -71 2 -106t9 -74h-99q-7 45 -7 104
q-45 -63 -124 -93t-203 -30q-114 0 -181.5 39.5zM490.5 72.5q66.5 20.5 104 58.5t37.5 90v23l-293 -18q-70 -4 -109.5 -15t-55.5 -29.5t-16 -48.5q0 -40 46 -60.5t134 -20.5q86 0 152.5 20.5z" />
    <glyph glyph-name="b" unicode="b" horiz-adv-x="869" 
d="M317.5 12.5q-72.5 31.5 -111.5 84.5l-11 -97h-84v725h95v-328q40 57 118.5 89.5t176.5 32.5t172.5 -33.5t115.5 -94t41 -140.5q0 -77 -43 -138.5t-119.5 -96.5t-172.5 -35q-105 0 -177.5 31.5zM605.5 83.5q59.5 23.5 91.5 66.5t32 101q0 88 -68 138.5t-186 50.5
q-78 0 -139.5 -23t-96.5 -63.5t-35 -91.5v-22q0 -52 33 -93t93 -64t136 -23q80 0 139.5 23.5z" />
    <glyph glyph-name="c" unicode="c" horiz-adv-x="773" 
d="M205.5 14q-79.5 33 -123 94t-43.5 142t44 142t124.5 94t188.5 33q141 0 225 -46.5t113 -142.5l-106 -14q-22 63 -80 93.5t-156 30.5q-121 0 -186.5 -49.5t-65.5 -140.5q0 -88 67.5 -139t185.5 -51q183 0 239 118l100 -15q-27 -86 -117.5 -134t-224.5 -48
q-105 0 -184.5 33z" />
    <glyph glyph-name="d" unicode="d" horiz-adv-x="869" 
d="M200.5 15.5q-75.5 34.5 -118.5 96t-43 137.5q0 79 42.5 140.5t119 95.5t175.5 34q192 0 286 -116v322h96v-725h-94v103q-89 -122 -294 -122q-94 0 -169.5 34.5zM535.5 83.5q60.5 22.5 94.5 62t34 90.5v21q0 53 -35 95t-97.5 65t-142.5 23q-116 0 -182.5 -51t-66.5 -140
q0 -87 69.5 -137.5t188.5 -50.5q77 0 137.5 22.5z" />
    <glyph glyph-name="e" unicode="e" horiz-adv-x="792" 
d="M744 223h-606q5 -77 72.5 -120.5t187.5 -43.5q182 0 256 104l81 -39q-51 -72 -134 -107.5t-204 -35.5q-109 0 -190 31.5t-124.5 91t-43.5 140.5q0 133 95.5 204t255.5 71q108 0 188 -31t123 -90t43 -139v-36zM644 294q0 48 -34.5 83.5t-92 54t-127.5 18.5
q-108 0 -176.5 -42.5t-75.5 -114.5h506v1z" />
    <glyph glyph-name="f" unicode="f" horiz-adv-x="528" 
d="M512 425h-236v-425h-96v425h-156v75h156v34q0 102 54.5 151.5t167.5 49.5q56 0 110 -12v-81q-44 11 -107 11q-69 0 -99 -26.5t-30 -88.5v-38h236v-75z" />
    <glyph glyph-name="g" unicode="g" horiz-adv-x="794" 
d="M651.5 493.5q-23.5 -9.5 -34.5 -27.5q70 -47 70 -124q0 -55 -35.5 -95.5t-102 -62.5t-156.5 -22q-96 0 -166 25q-60 -13 -60 -51q0 -46 88 -46l301 -1q95 0 143 -34.5t48 -101.5q0 -86 -86.5 -126.5t-270.5 -40.5q-173 0 -256 34.5t-83 104.5q0 38 21 62t67 38
q-63 28 -63 84q0 74 103 101q-39 23 -59.5 57t-20.5 75q0 82 78.5 129.5t215.5 47.5q99 0 174 -27q11 43 48 66t96 23q18 0 42 -4v-78q-17 4 -45 4q-33 0 -56.5 -9.5zM537 259.5q52 29.5 52 82.5t-51.5 81.5t-144.5 28.5q-92 0 -144 -28.5t-52 -81.5q0 -52 52 -82t144 -30
t144 29.5zM250 7q-33 0 -54 4q-30 -11 -43.5 -28.5t-13.5 -42.5q0 -43 61.5 -63t190.5 -20q139 0 201.5 21.5t62.5 67.5q0 32 -27 46.5t-87 14.5h-291z" />
    <glyph glyph-name="h" unicode="h" horiz-adv-x="867" 
d="M111 725h95v-347q40 68 112.5 104.5t167.5 36.5q146 0 222.5 -77.5t76.5 -227.5v-214h-96v201q0 116 -58.5 176.5t-171.5 60.5q-74 0 -131.5 -26.5t-89.5 -75t-32 -111.5v-225h-95v725z" />
    <glyph glyph-name="i" unicode="i" horiz-adv-x="307" 
d="M106 500h95v-500h-95v500zM96 707h114v-116h-114v116z" />
    <glyph glyph-name="j" unicode="j" horiz-adv-x="324" 
d="M-50 -205v81q32 -4 86 -4q44 0 65 27.5t21 97.5v503h96v-520q0 -88 -42.5 -139.5t-144.5 -51.5q-52 0 -81 6zM109 707h114v-116h-114v116z" />
    <glyph glyph-name="k" unicode="k" horiz-adv-x="779" 
d="M397 277l-191 -121v-156h-95v725h95v-478l383 253h142l-254 -173l270 -327h-120z" />
    <glyph glyph-name="l" unicode="l" horiz-adv-x="317" 
d="M206 0h-95v725h95v-725z" />
    <glyph glyph-name="m" unicode="m" horiz-adv-x="1255" 
d="M200 500v-117q28 67 88.5 101.5t147.5 34.5q89 0 149 -36t84 -104q34 67 99 103.5t151 36.5q125 0 189 -66.5t64 -197.5v-255h-95v248q0 94 -45.5 142t-134.5 48q-62 0 -110 -24t-74 -67.5t-26 -100.5v-246h-96v244q0 96 -45 145t-134 49q-62 0 -110 -25.5t-74.5 -71.5
t-26.5 -107v-234h-95v500h94z" />
    <glyph glyph-name="n" unicode="n" horiz-adv-x="862" 
d="M106 500h94v-123q39 70 112 106t175 36q143 0 218 -70t75 -203v-246h-96v222q0 216 -224 216q-78 0 -136.5 -26t-90.5 -74.5t-32 -113.5v-224h-95v500z" />
    <glyph glyph-name="o" unicode="o" horiz-adv-x="795" 
d="M211 14.5q-82 33.5 -127 94.5t-45 141t45 141t127 94.5t187 33.5t187 -33.5t127 -94.5t45 -141t-45 -141t-127 -94.5t-187 -33.5t-187 33.5zM533.5 83.5q58.5 23.5 90.5 66.5t32 100t-32 100t-90.5 66.5t-135.5 23.5q-78 0 -136.5 -23.5t-90 -66.5t-31.5 -100t31.5 -100
t90 -66.5t136.5 -23.5q77 0 135.5 23.5z" />
    <glyph glyph-name="p" unicode="p" horiz-adv-x="864" 
d="M106 500h95v-106q39 59 117.5 92t176.5 33q99 0 173.5 -33.5t115.5 -95t41 -142.5q0 -77 -43 -138t-119.5 -95t-172.5 -34q-92 0 -172 31.5t-117 81.5v-289h-95v695zM653.5 111q70.5 50 70.5 137q0 89 -68 140.5t-186 51.5q-78 0 -139.5 -23.5t-96.5 -65t-35 -93.5v-20
q0 -52 33 -92.5t92.5 -62.5t136.5 -22q122 0 192.5 50z" />
    <glyph glyph-name="q" unicode="q" horiz-adv-x="864" 
d="M662 96q-34 -48 -112.5 -81.5t-176.5 -33.5t-174 35.5t-118 97t-42 137.5q0 80 41.5 141t116 94t172.5 33q101 0 179 -33.5t116 -89.5l11 104h83v-695h-96v291zM545 85.5q59 24.5 89 66t30 89.5v21q0 47 -32 88t-93 65.5t-145 24.5q-111 0 -183 -48t-72 -141
q0 -90 72 -140t191 -50q84 0 143 24.5z" />
    <glyph glyph-name="r" unicode="r" horiz-adv-x="501" 
d="M275.5 471.5q59.5 43.5 139.5 43.5q41 0 66 -6v-92q-34 6 -67 6q-57 0 -94 -15t-65 -46q-54 -58 -54 -175v-187h-95v500h88v-145q22 73 81.5 116.5z" />
    <glyph glyph-name="s" unicode="s" horiz-adv-x="752" 
d="M187 17.5q-85 36.5 -132 107.5l79 43q70 -113 284 -113q183 0 183 87q0 31 -22 45t-81 18l-241 19q-92 8 -137 41.5t-45 97.5q0 73 75 114.5t208 41.5q126 0 210.5 -32t121.5 -92l-81 -39q-37 47 -97 68.5t-163 21.5q-180 0 -180 -79q0 -30 25.5 -45.5t77.5 -19.5
l243 -19q96 -8 138 -40.5t42 -94.5q0 -78 -70.5 -122.5t-218.5 -44.5q-134 0 -219 36.5z" />
    <glyph glyph-name="t" unicode="t" horiz-adv-x="567" 
d="M18 500h157v130l96 39v-169h250v-75h-250v-232q0 -63 33.5 -91.5t100.5 -28.5q57 0 118 14v-81q-19 -8 -56.5 -14t-72.5 -6q-126 0 -172.5 54.5t-46.5 143.5v241h-157v75z" />
    <glyph glyph-name="u" unicode="u" horiz-adv-x="849" 
d="M153 46q-71 65 -71 199v255h96v-247q0 -110 60 -151.5t147 -41.5q91 0 150 34t86 84.5t27 101.5v220h96v-500h-95v136q-33 -76 -107.5 -115.5t-176.5 -39.5q-141 0 -212 65z" />
    <glyph glyph-name="v" unicode="v" horiz-adv-x="726" 
d="M0 500h110l237 -392q7 -11 15 -31h2q4 14 15 31l237 392h110l-309 -500h-108z" />
    <glyph glyph-name="w" unicode="w" horiz-adv-x="1113" 
d="M15 500h102l169 -384q9 -22 12 -39h2q2 13 14 39l189 384h107l189 -384q12 -26 14 -39h2q3 12 12 39l169 384h102l-224 -500h-117l-186 378q-11 25 -13 43h-3q0 -17 -13 -43l-186 -378h-116z" />
    <glyph glyph-name="x" unicode="x" horiz-adv-x="725" 
d="M295 255l-271 245h127l174 -160q23 -21 35 -40h1q16 21 35 39l177 161h127l-274 -245l289 -255h-132l-183 160q-15 13 -24.5 22.5t-16.5 20.5h-1q-10 -13 -44 -44l-181 -159h-123z" />
    <glyph glyph-name="y" unicode="y" horiz-adv-x="710" 
d="M47 -209v82q25 -4 54 -4q75 0 128 31t78 84l7 15l-314 501h115l233 -389q8 -15 14 -33h2q4 12 14 32l224 390h107l-310 -531q-53 -97 -122 -140t-167 -43q-36 0 -63 5z" />
    <glyph glyph-name="z" unicode="z" horiz-adv-x="739" 
d="M540 423h-461v77h598v-76l-487 -347h506v-77h-639v77z" />
    <glyph glyph-name="aacute" unicode="&#xe1;" horiz-adv-x="816" 
d="M124.5 20.5q-67.5 39.5 -67.5 110.5q0 34 13.5 62t39.5 47q30 22 75.5 34t134.5 17l312 18v10q0 60 -57 93.5t-158 33.5q-103 0 -163.5 -29t-72.5 -84h-105q8 55 51.5 97t118 65.5t171.5 23.5q153 0 232 -53.5t79 -157.5v-128q0 -71 2 -106t9 -74h-99q-7 45 -7 104
q-45 -63 -124 -93t-203 -30q-114 0 -181.5 39.5zM490.5 72.5q66.5 20.5 104 58.5t37.5 90v23l-293 -18q-70 -4 -109.5 -15t-55.5 -29.5t-16 -48.5q0 -40 46 -60.5t134 -20.5q86 0 152.5 20.5zM529 730h122l-183 -151h-103z" />
    <glyph glyph-name="abreve" unicode="&#x103;" horiz-adv-x="816" 
d="M124.5 20.5q-67.5 39.5 -67.5 110.5q0 34 13.5 62t39.5 47q30 22 75.5 34t134.5 17l312 18v10q0 60 -57 93.5t-158 33.5q-103 0 -163.5 -29t-72.5 -84h-105q8 55 51.5 97t118 65.5t171.5 23.5q153 0 232 -53.5t79 -157.5v-128q0 -71 2 -106t9 -74h-99q-7 45 -7 104
q-45 -63 -124 -93t-203 -30q-114 0 -181.5 39.5zM490.5 72.5q66.5 20.5 104 58.5t37.5 90v23l-293 -18q-70 -4 -109.5 -15t-55.5 -29.5t-16 -48.5q0 -40 46 -60.5t134 -20.5q86 0 152.5 20.5zM332.5 657q30.5 -25 83.5 -25t83 25t34 73h78q-6 -75 -57.5 -115.5t-137.5 -40.5
q-87 0 -138.5 40.5t-57.5 115.5h78q4 -48 34.5 -73z" />
    <glyph glyph-name="acircumflex" unicode="&#xe2;" horiz-adv-x="816" 
d="M124.5 20.5q-67.5 39.5 -67.5 110.5q0 34 13.5 62t39.5 47q30 22 75.5 34t134.5 17l312 18v10q0 60 -57 93.5t-158 33.5q-103 0 -163.5 -29t-72.5 -84h-105q8 55 51.5 97t118 65.5t171.5 23.5q153 0 232 -53.5t79 -157.5v-128q0 -71 2 -106t9 -74h-99q-7 45 -7 104
q-45 -63 -124 -93t-203 -30q-114 0 -181.5 39.5zM490.5 72.5q66.5 20.5 104 58.5t37.5 90v23l-293 -18q-70 -4 -109.5 -15t-55.5 -29.5t-16 -48.5q0 -40 46 -60.5t134 -20.5q86 0 152.5 20.5zM539 579l-123 110l-123 -110h-97l164 151h112l164 -151h-97z" />
    <glyph glyph-name="adieresis" unicode="&#xe4;" horiz-adv-x="816" 
d="M124.5 20.5q-67.5 39.5 -67.5 110.5q0 34 13.5 62t39.5 47q30 22 75.5 34t134.5 17l312 18v10q0 60 -57 93.5t-158 33.5q-103 0 -163.5 -29t-72.5 -84h-105q8 55 51.5 97t118 65.5t171.5 23.5q153 0 232 -53.5t79 -157.5v-128q0 -71 2 -106t9 -74h-99q-7 45 -7 104
q-45 -63 -124 -93t-203 -30q-114 0 -181.5 39.5zM490.5 72.5q66.5 20.5 104 58.5t37.5 90v23l-293 -18q-70 -4 -109.5 -15t-55.5 -29.5t-16 -48.5q0 -40 46 -60.5t134 -20.5q86 0 152.5 20.5zM196 710h122v-113h-122v113zM517 710h121v-113h-121v113z" />
    <glyph glyph-name="ae" unicode="&#xe6;" horiz-adv-x="1329" 
d="M1281 224h-568q5 -77 68 -121t173 -44q169 0 236 106l81 -39q-48 -73 -126.5 -109t-191.5 -36q-110 0 -189.5 36t-117.5 102q-93 -138 -332 -138q-124 0 -190.5 39t-66.5 112q0 71 63.5 108.5t189.5 40.5l303 8v23q0 68 -49.5 100t-153.5 32q-105 0 -165 -31t-68 -89
h-101q14 92 102.5 143.5t232.5 51.5q97 0 164 -25t100 -74q43 49 112.5 74t158.5 25q102 0 178 -31t116.5 -90t40.5 -139v-35zM1181 295q0 48 -32 83t-85.5 53.5t-117.5 18.5q-100 0 -163.5 -42t-69.5 -113h468zM613 227l-294 -9q-83 -2 -122 -22.5t-39 -61.5q0 -80 171 -80
q81 0 145.5 20t101.5 56t37 82v15z" />
    <glyph glyph-name="aeacute" unicode="&#x1fd;" horiz-adv-x="1329" 
d="M1281 224h-568q5 -77 68 -121t173 -44q169 0 236 106l81 -39q-48 -73 -126.5 -109t-191.5 -36q-110 0 -189.5 36t-117.5 102q-93 -138 -332 -138q-124 0 -190.5 39t-66.5 112q0 71 63.5 108.5t189.5 40.5l303 8v23q0 68 -49.5 100t-153.5 32q-105 0 -165 -31t-68 -89
h-101q14 92 102.5 143.5t232.5 51.5q97 0 164 -25t100 -74q43 49 112.5 74t158.5 25q102 0 178 -31t116.5 -90t40.5 -139v-35zM1181 295q0 48 -32 83t-85.5 53.5t-117.5 18.5q-100 0 -163.5 -42t-69.5 -113h468zM613 227l-294 -9q-83 -2 -122 -22.5t-39 -61.5q0 -80 171 -80
q81 0 145.5 20t101.5 56t37 82v15zM781 730h122l-183 -151h-103z" />
    <glyph glyph-name="agrave" unicode="&#xe0;" horiz-adv-x="816" 
d="M124.5 20.5q-67.5 39.5 -67.5 110.5q0 34 13.5 62t39.5 47q30 22 75.5 34t134.5 17l312 18v10q0 60 -57 93.5t-158 33.5q-103 0 -163.5 -29t-72.5 -84h-105q8 55 51.5 97t118 65.5t171.5 23.5q153 0 232 -53.5t79 -157.5v-128q0 -71 2 -106t9 -74h-99q-7 45 -7 104
q-45 -63 -124 -93t-203 -30q-114 0 -181.5 39.5zM490.5 72.5q66.5 20.5 104 58.5t37.5 90v23l-293 -18q-70 -4 -109.5 -15t-55.5 -29.5t-16 -48.5q0 -40 46 -60.5t134 -20.5q86 0 152.5 20.5zM366 579l-183 151h122l164 -151h-103z" />
    <glyph glyph-name="amacron" unicode="&#x101;" horiz-adv-x="816" 
d="M124.5 20.5q-67.5 39.5 -67.5 110.5q0 34 13.5 62t39.5 47q30 22 75.5 34t134.5 17l312 18v10q0 60 -57 93.5t-158 33.5q-103 0 -163.5 -29t-72.5 -84h-105q8 55 51.5 97t118 65.5t171.5 23.5q153 0 232 -53.5t79 -157.5v-128q0 -71 2 -106t9 -74h-99q-7 45 -7 104
q-45 -63 -124 -93t-203 -30q-114 0 -181.5 39.5zM490.5 72.5q66.5 20.5 104 58.5t37.5 90v23l-293 -18q-70 -4 -109.5 -15t-55.5 -29.5t-16 -48.5q0 -40 46 -60.5t134 -20.5q86 0 152.5 20.5zM183 675h466v-65h-466v65z" />
    <glyph glyph-name="aogonek" unicode="&#x105;" horiz-adv-x="816" 
d="M757 -117q-10 -40 -46 -61.5t-93 -21.5q-52 0 -85.5 25.5t-33.5 64.5q0 44 35 75.5t104 48.5q-5 35 -5 90q-45 -63 -124 -93t-203 -30q-114 0 -181.5 39.5t-67.5 110.5q0 34 13.5 62t39.5 47q30 22 75.5 34t134.5 17l312 18v10q0 60 -57 93.5t-158 33.5
q-103 0 -163.5 -29t-72.5 -84h-105q8 55 51.5 97t118 65.5t171.5 23.5q153 0 232 -53.5t79 -157.5v-128q0 -71 2 -106t9 -74h-9q-75 -10 -115.5 -38.5t-40.5 -62.5q0 -22 15 -36t38 -14q46 0 65 48zM632 244l-293 -18q-70 -4 -109.5 -15t-55.5 -29.5t-16 -48.5
q0 -40 46 -60.5t134 -20.5q86 0 152.5 20.5t104 58.5t37.5 90v23z" />
    <glyph glyph-name="aring" unicode="&#xe5;" horiz-adv-x="816" 
d="M124.5 20.5q-67.5 39.5 -67.5 110.5q0 34 13.5 62t39.5 47q30 22 75.5 34t134.5 17l312 18v10q0 60 -57 93.5t-158 33.5q-103 0 -163.5 -29t-72.5 -84h-105q8 55 51.5 97t118 65.5t171.5 23.5q153 0 232 -53.5t79 -157.5v-128q0 -71 2 -106t9 -74h-99q-7 45 -7 104
q-45 -63 -124 -93t-203 -30q-114 0 -181.5 39.5zM490.5 72.5q66.5 20.5 104 58.5t37.5 90v23l-293 -18q-70 -4 -109.5 -15t-55.5 -29.5t-16 -48.5q0 -40 46 -60.5t134 -20.5q86 0 152.5 20.5zM301 586q-43 28 -43 75t43 75t116 28t116 -28t43 -75t-43 -75t-116 -28t-116 28z
M489.5 618.5q26.5 15.5 26.5 42.5q0 26 -26.5 41.5t-72.5 15.5t-72 -15.5t-26 -41.5q0 -27 26 -42.5t72 -15.5t72.5 15.5z" />
    <glyph glyph-name="atilde" unicode="&#xe3;" horiz-adv-x="816" 
d="M124.5 20.5q-67.5 39.5 -67.5 110.5q0 34 13.5 62t39.5 47q30 22 75.5 34t134.5 17l312 18v10q0 60 -57 93.5t-158 33.5q-103 0 -163.5 -29t-72.5 -84h-105q8 55 51.5 97t118 65.5t171.5 23.5q153 0 232 -53.5t79 -157.5v-128q0 -71 2 -106t9 -74h-99q-7 45 -7 104
q-45 -63 -124 -93t-203 -30q-114 0 -181.5 39.5zM490.5 72.5q66.5 20.5 104 58.5t37.5 90v23l-293 -18q-70 -4 -109.5 -15t-55.5 -29.5t-16 -48.5q0 -40 46 -60.5t134 -20.5q86 0 152.5 20.5zM455.5 596q-26.5 10 -58.5 29q-27 15 -44.5 22.5t-40.5 7.5q-31 0 -51.5 -16.5
t-27.5 -45.5l-67 13q11 55 49.5 85t98.5 30q37 0 63 -10t58 -29q27 -15 44.5 -22.5t40.5 -7.5q32 0 52.5 16t26.5 46l68 -13q-11 -55 -49.5 -85t-98.5 -30q-37 0 -63.5 10z" />
    <glyph glyph-name="cacute" unicode="&#x107;" horiz-adv-x="773" 
d="M205.5 14q-79.5 33 -123 94t-43.5 142t44 142t124.5 94t188.5 33q141 0 225 -46.5t113 -142.5l-106 -14q-22 63 -80 93.5t-156 30.5q-121 0 -186.5 -49.5t-65.5 -140.5q0 -88 67.5 -139t185.5 -51q183 0 239 118l100 -15q-27 -86 -117.5 -134t-224.5 -48
q-105 0 -184.5 33zM501 730h122l-183 -151h-103z" />
    <glyph glyph-name="ccaron" unicode="&#x10d;" horiz-adv-x="773" 
d="M205.5 14q-79.5 33 -123 94t-43.5 142t44 142t124.5 94t188.5 33q141 0 225 -46.5t113 -142.5l-106 -14q-22 63 -80 93.5t-156 30.5q-121 0 -186.5 -49.5t-65.5 -140.5q0 -88 67.5 -139t185.5 -51q183 0 239 118l100 -15q-27 -86 -117.5 -134t-224.5 -48
q-105 0 -184.5 33zM265 725l123 -110l123 110h97l-164 -151h-112l-164 151h97z" />
    <glyph glyph-name="ccedilla" unicode="&#xe7;" horiz-adv-x="773" 
d="M632 178l100 -15q-25 -81 -107 -128.5t-204 -52.5l-24 -33q22 14 63 14q50 0 78.5 -20.5t28.5 -56.5q0 -39 -38 -63.5t-99 -24.5q-47 0 -81.5 16t-49.5 45l65 13q16 -27 67 -27q29 0 45.5 10.5t16.5 28.5q0 19 -14.5 29.5t-42.5 10.5q-35 0 -61 -16l-49 12l38 62
q-98 4 -171.5 38t-113.5 93.5t-40 136.5q0 81 44 142t124.5 94t188.5 33q141 0 225 -46.5t113 -142.5l-106 -14q-22 63 -80 93.5t-156 30.5q-121 0 -186.5 -49.5t-65.5 -140.5q0 -88 67.5 -139t185.5 -51q183 0 239 118z" />
    <glyph glyph-name="ccircumflex" unicode="&#x109;" horiz-adv-x="773" 
d="M205.5 14q-79.5 33 -123 94t-43.5 142t44 142t124.5 94t188.5 33q141 0 225 -46.5t113 -142.5l-106 -14q-22 63 -80 93.5t-156 30.5q-121 0 -186.5 -49.5t-65.5 -140.5q0 -88 67.5 -139t185.5 -51q183 0 239 118l100 -15q-27 -86 -117.5 -134t-224.5 -48
q-105 0 -184.5 33zM511 579l-123 110l-123 -110h-97l164 151h112l164 -151h-97z" />
    <glyph glyph-name="cdotaccent" unicode="&#x10b;" horiz-adv-x="773" 
d="M205.5 14q-79.5 33 -123 94t-43.5 142t44 142t124.5 94t188.5 33q141 0 225 -46.5t113 -142.5l-106 -14q-22 63 -80 93.5t-156 30.5q-121 0 -186.5 -49.5t-65.5 -140.5q0 -88 67.5 -139t185.5 -51q183 0 239 118l100 -15q-27 -86 -117.5 -134t-224.5 -48
q-105 0 -184.5 33zM331 707h114v-116h-114v116z" />
    <glyph glyph-name="dcaron" unicode="&#x10f;" horiz-adv-x="880" 
d="M200.5 15.5q-75.5 34.5 -118.5 96t-43 137.5q0 79 42.5 140.5t119 95.5t175.5 34q192 0 286 -116v322h96v-725h-94v103q-89 -122 -294 -122q-94 0 -169.5 34.5zM535.5 83.5q60.5 22.5 94.5 62t34 90.5v21q0 53 -35 95t-97.5 65t-142.5 23q-116 0 -182.5 -51t-66.5 -140
q0 -87 69.5 -137.5t188.5 -50.5q77 0 137.5 22.5zM823 563q32 12 42 26t10 35h-63v86h113v-68q0 -44 -17.5 -69.5t-65.5 -40.5z" />
    <glyph glyph-name="dcroat" unicode="&#x111;" horiz-adv-x="869" 
d="M876 582h-118v-582h-94v103q-89 -122 -294 -122q-94 0 -169.5 34.5t-118.5 96t-43 137.5q0 79 42.5 140.5t119 95.5t175.5 34q192 0 286 -116v179h-265v59h265v84h96v-84h118v-59zM664 257q0 53 -35 95t-97.5 65t-142.5 23q-116 0 -182.5 -51t-66.5 -140
q0 -87 69.5 -137.5t188.5 -50.5q77 0 137.5 22.5t94.5 62t34 90.5v21z" />
    <glyph glyph-name="eacute" unicode="&#xe9;" horiz-adv-x="792" 
d="M744 223h-606q5 -77 72.5 -120.5t187.5 -43.5q182 0 256 104l81 -39q-51 -72 -134 -107.5t-204 -35.5q-109 0 -190 31.5t-124.5 91t-43.5 140.5q0 133 95.5 204t255.5 71q108 0 188 -31t123 -90t43 -139v-36zM644 294q0 48 -34.5 83.5t-92 54t-127.5 18.5
q-108 0 -176.5 -42.5t-75.5 -114.5h506v1zM508 730h122l-183 -151h-103z" />
    <glyph glyph-name="ebreve" unicode="&#x115;" horiz-adv-x="792" 
d="M744 223h-606q5 -77 72.5 -120.5t187.5 -43.5q182 0 256 104l81 -39q-51 -72 -134 -107.5t-204 -35.5q-109 0 -190 31.5t-124.5 91t-43.5 140.5q0 133 95.5 204t255.5 71q108 0 188 -31t123 -90t43 -139v-36zM644 294q0 48 -34.5 83.5t-92 54t-127.5 18.5
q-108 0 -176.5 -42.5t-75.5 -114.5h506v1zM312.5 657q30.5 -25 83.5 -25t83 25t34 73h78q-6 -75 -57.5 -115.5t-137.5 -40.5q-87 0 -138.5 40.5t-57.5 115.5h78q4 -48 34.5 -73z" />
    <glyph glyph-name="ecaron" unicode="&#x11b;" horiz-adv-x="792" 
d="M744 223h-606q5 -77 72.5 -120.5t187.5 -43.5q182 0 256 104l81 -39q-51 -72 -134 -107.5t-204 -35.5q-109 0 -190 31.5t-124.5 91t-43.5 140.5q0 133 95.5 204t255.5 71q108 0 188 -31t123 -90t43 -139v-36zM644 294q0 48 -34.5 83.5t-92 54t-127.5 18.5
q-108 0 -176.5 -42.5t-75.5 -114.5h506v1zM273 725l123 -110l123 110h97l-164 -151h-112l-164 151h97z" />
    <glyph glyph-name="ecircumflex" unicode="&#xea;" horiz-adv-x="792" 
d="M744 223h-606q5 -77 72.5 -120.5t187.5 -43.5q182 0 256 104l81 -39q-51 -72 -134 -107.5t-204 -35.5q-109 0 -190 31.5t-124.5 91t-43.5 140.5q0 133 95.5 204t255.5 71q108 0 188 -31t123 -90t43 -139v-36zM644 294q0 48 -34.5 83.5t-92 54t-127.5 18.5
q-108 0 -176.5 -42.5t-75.5 -114.5h506v1zM519 579l-123 110l-123 -110h-97l164 151h112l164 -151h-97z" />
    <glyph glyph-name="edieresis" unicode="&#xeb;" horiz-adv-x="792" 
d="M744 223h-606q5 -77 72.5 -120.5t187.5 -43.5q182 0 256 104l81 -39q-51 -72 -134 -107.5t-204 -35.5q-109 0 -190 31.5t-124.5 91t-43.5 140.5q0 133 95.5 204t255.5 71q108 0 188 -31t123 -90t43 -139v-36zM644 294q0 48 -34.5 83.5t-92 54t-127.5 18.5
q-108 0 -176.5 -42.5t-75.5 -114.5h506v1zM175 710h122v-113h-122v113zM496 710h121v-113h-121v113z" />
    <glyph glyph-name="edotaccent" unicode="&#x117;" horiz-adv-x="792" 
d="M744 223h-606q5 -77 72.5 -120.5t187.5 -43.5q182 0 256 104l81 -39q-51 -72 -134 -107.5t-204 -35.5q-109 0 -190 31.5t-124.5 91t-43.5 140.5q0 133 95.5 204t255.5 71q108 0 188 -31t123 -90t43 -139v-36zM644 294q0 48 -34.5 83.5t-92 54t-127.5 18.5
q-108 0 -176.5 -42.5t-75.5 -114.5h506v1zM339 707h114v-116h-114v116z" />
    <glyph glyph-name="egrave" unicode="&#xe8;" horiz-adv-x="792" 
d="M744 223h-606q5 -77 72.5 -120.5t187.5 -43.5q182 0 256 104l81 -39q-51 -72 -134 -107.5t-204 -35.5q-109 0 -190 31.5t-124.5 91t-43.5 140.5q0 133 95.5 204t255.5 71q108 0 188 -31t123 -90t43 -139v-36zM644 294q0 48 -34.5 83.5t-92 54t-127.5 18.5
q-108 0 -176.5 -42.5t-75.5 -114.5h506v1zM346 579l-183 151h122l164 -151h-103z" />
    <glyph glyph-name="emacron" unicode="&#x113;" horiz-adv-x="792" 
d="M744 223h-606q5 -77 72.5 -120.5t187.5 -43.5q182 0 256 104l81 -39q-51 -72 -134 -107.5t-204 -35.5q-109 0 -190 31.5t-124.5 91t-43.5 140.5q0 133 95.5 204t255.5 71q108 0 188 -31t123 -90t43 -139v-36zM644 294q0 48 -34.5 83.5t-92 54t-127.5 18.5
q-108 0 -176.5 -42.5t-75.5 -114.5h506v1zM163 675h466v-65h-466v65z" />
    <glyph glyph-name="eogonek" unicode="&#x119;" horiz-adv-x="792" 
d="M744 223h-606q5 -77 72.5 -120.5t187.5 -43.5q182 0 256 104l81 -39q-80 -114 -243 -137q-46 -15 -70 -38.5t-24 -49.5q0 -22 15 -36t38 -14q46 0 66 48l64 -13q-11 -41 -46.5 -62.5t-92.5 -21.5q-52 0 -85.5 25.5t-33.5 64.5q0 56 56 91q-104 3 -180.5 35.5t-118 90.5
t-41.5 137q0 133 95.5 204t255.5 71q108 0 188 -31t123 -90t43 -139v-36zM644 294q0 48 -34.5 83.5t-92 54t-127.5 18.5q-108 0 -176.5 -42.5t-75.5 -114.5h506v1z" />
    <glyph glyph-name="gbreve" unicode="&#x11f;" horiz-adv-x="794" 
d="M651.5 493.5q-23.5 -9.5 -34.5 -27.5q70 -47 70 -124q0 -55 -35.5 -95.5t-102 -62.5t-156.5 -22q-96 0 -166 25q-60 -13 -60 -51q0 -46 88 -46l301 -1q95 0 143 -34.5t48 -101.5q0 -86 -86.5 -126.5t-270.5 -40.5q-173 0 -256 34.5t-83 104.5q0 38 21 62t67 38
q-63 28 -63 84q0 74 103 101q-39 23 -59.5 57t-20.5 75q0 82 78.5 129.5t215.5 47.5q99 0 174 -27q11 43 48 66t96 23q18 0 42 -4v-78q-17 4 -45 4q-33 0 -56.5 -9.5zM537 259.5q52 29.5 52 82.5t-51.5 81.5t-144.5 28.5q-92 0 -144 -28.5t-52 -81.5q0 -52 52 -82t144 -30
t144 29.5zM250 7q-33 0 -54 4q-30 -11 -43.5 -28.5t-13.5 -42.5q0 -43 61.5 -63t190.5 -20q139 0 201.5 21.5t62.5 67.5q0 32 -27 46.5t-87 14.5h-291zM308.5 657q30.5 -25 83.5 -25t83 25t34 73h78q-6 -75 -57.5 -115.5t-137.5 -40.5q-87 0 -138.5 40.5t-57.5 115.5h78
q4 -48 34.5 -73z" />
    <glyph glyph-name="gcircumflex" unicode="&#x11d;" horiz-adv-x="794" 
d="M269 591h-97l164 139h113l163 -139h-97l-123 99zM651.5 493.5q-23.5 -9.5 -34.5 -27.5q70 -47 70 -124q0 -55 -35.5 -95.5t-102 -62.5t-156.5 -22q-96 0 -166 25q-60 -13 -60 -51q0 -46 88 -46l301 -1q95 0 143 -34.5t48 -101.5q0 -86 -86.5 -126.5t-270.5 -40.5
q-173 0 -256 34.5t-83 104.5q0 38 21 62t67 38q-63 28 -63 84q0 74 103 101q-39 23 -59.5 57t-20.5 75q0 82 78.5 129.5t215.5 47.5q99 0 174 -27q11 43 48 66t96 23q18 0 42 -4v-78q-17 4 -45 4q-33 0 -56.5 -9.5zM537 259.5q52 29.5 52 82.5t-51.5 81.5t-144.5 28.5
q-92 0 -144 -28.5t-52 -81.5q0 -52 52 -82t144 -30t144 29.5zM250 7q-33 0 -54 4q-30 -11 -43.5 -28.5t-13.5 -42.5q0 -43 61.5 -63t190.5 -20q139 0 201.5 21.5t62.5 67.5q0 32 -27 46.5t-87 14.5h-291z" />
    <glyph glyph-name="uni0123" unicode="&#x123;" horiz-adv-x="794" 
d="M651.5 493.5q-23.5 -9.5 -34.5 -27.5q70 -47 70 -124q0 -55 -35.5 -95.5t-102 -62.5t-156.5 -22q-96 0 -166 25q-60 -13 -60 -51q0 -46 88 -46l301 -1q95 0 143 -34.5t48 -101.5q0 -86 -86.5 -126.5t-270.5 -40.5q-173 0 -256 34.5t-83 104.5q0 38 21 62t67 38
q-63 28 -63 84q0 74 103 101q-39 23 -59.5 57t-20.5 75q0 82 78.5 129.5t215.5 47.5q99 0 174 -27q11 43 48 66t96 23q18 0 42 -4v-78q-17 4 -45 4q-33 0 -56.5 -9.5zM537 259.5q52 29.5 52 82.5t-51.5 81.5t-144.5 28.5q-92 0 -144 -28.5t-52 -81.5q0 -52 52 -82t144 -30
t144 29.5zM250 7q-33 0 -54 4q-30 -11 -43.5 -28.5t-13.5 -42.5q0 -43 61.5 -63t190.5 -20q139 0 201.5 21.5t62.5 67.5q0 32 -27 46.5t-87 14.5h-291zM437 729q-33 -12 -43.5 -27t-10.5 -37h64v-86h-113v69q0 44 17.5 70.5t64.5 42.5z" />
    <glyph glyph-name="gdotaccent" unicode="&#x121;" horiz-adv-x="794" 
d="M651.5 493.5q-23.5 -9.5 -34.5 -27.5q70 -47 70 -124q0 -55 -35.5 -95.5t-102 -62.5t-156.5 -22q-96 0 -166 25q-60 -13 -60 -51q0 -46 88 -46l301 -1q95 0 143 -34.5t48 -101.5q0 -86 -86.5 -126.5t-270.5 -40.5q-173 0 -256 34.5t-83 104.5q0 38 21 62t67 38
q-63 28 -63 84q0 74 103 101q-39 23 -59.5 57t-20.5 75q0 82 78.5 129.5t215.5 47.5q99 0 174 -27q11 43 48 66t96 23q18 0 42 -4v-78q-17 4 -45 4q-33 0 -56.5 -9.5zM537 259.5q52 29.5 52 82.5t-51.5 81.5t-144.5 28.5q-92 0 -144 -28.5t-52 -81.5q0 -52 52 -82t144 -30
t144 29.5zM250 7q-33 0 -54 4q-30 -11 -43.5 -28.5t-13.5 -42.5q0 -43 61.5 -63t190.5 -20q139 0 201.5 21.5t62.5 67.5q0 32 -27 46.5t-87 14.5h-291zM335 707h114v-116h-114v116z" />
    <glyph glyph-name="hbar" unicode="&#x127;" horiz-adv-x="856" 
d="M708.5 441.5q76.5 -77.5 76.5 -227.5v-214h-96v201q0 116 -58.5 176.5t-171.5 60.5q-74 0 -131.5 -26.5t-89.5 -75t-32 -111.5v-225h-95v577h-96v59h96v89h95v-89h345v-59h-345v-199q40 68 112.5 104.5t167.5 36.5q146 0 222.5 -77.5z" />
    <glyph glyph-name="hcircumflex" unicode="&#x125;" horiz-adv-x="867" 
d="M261 760l-102 71l-102 -71h-109l154 109h114l154 -109h-109zM111 725h95v-347q40 68 112.5 104.5t167.5 36.5q146 0 222.5 -77.5t76.5 -227.5v-214h-96v201q0 116 -58.5 176.5t-171.5 60.5q-74 0 -131.5 -26.5t-89.5 -75t-32 -111.5v-225h-95v725z" />
    <glyph glyph-name="iacute" unicode="&#xed;" horiz-adv-x="307" 
d="M201 730h100l-101 -151h-92zM106 500h95v-500h-95v500z" />
    <glyph glyph-name="ibreve" unicode="&#x12d;" horiz-adv-x="307" 
d="M122.5 658.5q10.5 -21.5 31.5 -21.5t31.5 21.5t10.5 71.5h75q-1 -81 -32.5 -118.5t-84.5 -37.5t-84.5 37.5t-32.5 118.5h75q0 -50 10.5 -71.5zM106 500h95v-500h-95v500z" />
    <glyph glyph-name="icircumflex" unicode="&#xee;" horiz-adv-x="307" 
d="M202 579l-48 110l-48 -110h-78l78 153h96l78 -153h-78zM106 500h95v-500h-95v500z" />
    <glyph glyph-name="idieresis" unicode="&#xef;" horiz-adv-x="307" 
d="M9 710h119v-113h-119v113zM180 710h119v-113h-119v113zM106 500h95v-500h-95v500z" />
    <glyph glyph-name="i.loclTRK" horiz-adv-x="307" 
d="M106 500h95v-500h-95v500zM96 707h114v-116h-114v116z" />
    <glyph glyph-name="dotlessi" unicode="&#x131;" horiz-adv-x="307" 
d="M106 500h95v-500h-95v500z" />
    <glyph glyph-name="igrave" unicode="&#xec;" horiz-adv-x="307" 
d="M108 579l-102 151h100l93 -151h-91zM106 500h95v-500h-95v500z" />
    <glyph glyph-name="ij" unicode="&#x133;" horiz-adv-x="632" 
d="M106 500h95v-500h-95v500zM96 707h114v-116h-114v116zM258 -205v81q32 -4 86 -4q44 0 65 27.5t21 97.5v503h96v-520q0 -88 -42.5 -139.5t-144.5 -51.5q-52 0 -81 6zM417 707h114v-116h-114v116z" />
    <glyph glyph-name="uni006A0301" horiz-adv-x="324" 
d="M213 730h101l-102 -151h-92zM-50 -205v81q32 -4 86 -4q44 0 65 27.5t21 97.5v503h96v-520q0 -88 -42.5 -139.5t-144.5 -51.5q-52 0 -81 6z" />
    <glyph glyph-name="imacron" unicode="&#x12b;" horiz-adv-x="307" 
d="M37 675h234v-65h-234v65zM106 500h95v-500h-95v500z" />
    <glyph glyph-name="iogonek" unicode="&#x12f;" horiz-adv-x="307" 
d="M211 591h-115v116h115v-116zM223 -117q-10 -40 -46 -61.5t-93 -21.5q-52 0 -85.5 25.5t-33.5 64.5q0 44 35.5 76t105.5 49v485h95v-500h-5q-75 -10 -115.5 -38.5t-40.5 -62.5q0 -22 15 -36t38 -14q47 0 65 48z" />
    <glyph glyph-name="itilde" unicode="&#x129;" horiz-adv-x="307" 
d="M168 597q-14 11 -29 30q-10 13 -17.5 19.5t-14.5 6.5q-12 0 -18.5 -12t-9.5 -41l-60 13q6 54 28.5 82t57.5 28q20 0 34.5 -11t29.5 -30q11 -13 18 -19t14 -6q12 0 18.5 12t9.5 41l60 -13q-6 -54 -28.5 -82.5t-58.5 -28.5q-20 0 -34 11zM106 500h95v-500h-95v500z" />
    <glyph glyph-name="jcircumflex" unicode="&#x135;" horiz-adv-x="324" 
d="M214 579l-48 110l-47 -110h-78l78 153h95l78 -153h-78zM-50 -205v81q32 -4 86 -4q44 0 65 27.5t21 97.5v503h96v-520q0 -88 -42.5 -139.5t-144.5 -51.5q-52 0 -81 6z" />
    <glyph glyph-name="uni0237" unicode="&#x237;" horiz-adv-x="324" 
d="M-50 -205v81q32 -4 86 -4q44 0 65 27.5t21 97.5v503h96v-520q0 -88 -42.5 -139.5t-144.5 -51.5q-52 0 -81 6z" />
    <glyph glyph-name="uni0137" unicode="&#x137;" horiz-adv-x="779" 
d="M397 277l-191 -121v-156h-95v725h95v-478l383 253h142l-254 -173l270 -327h-120zM342 -205q32 12 42.5 26.5t10.5 37.5h-64v86h113v-69q0 -45 -17.5 -71t-64.5 -42z" />
    <glyph glyph-name="kgreenlandic" unicode="&#x138;" horiz-adv-x="774" 
d="M392 277l-191 -121v-156h-95v500h95v-253l383 253h142l-254 -173l270 -327h-120z" />
    <glyph glyph-name="lacute" unicode="&#x13a;" horiz-adv-x="317" 
d="M259 869h122l-169 -109h-106zM206 0h-95v725h95v-725z" />
    <glyph glyph-name="lcaron" unicode="&#x13e;" horiz-adv-x="328" 
d="M206 0h-95v725h95v-725zM272 563q32 12 42 26t10 35h-63v86h113v-68q0 -44 -17.5 -69.5t-65.5 -40.5z" />
    <glyph glyph-name="uni013C" unicode="&#x13c;" horiz-adv-x="317" 
d="M206 0h-95v725h95v-725zM114 -205q32 12 42.5 26.5t10.5 37.5h-64v86h113v-69q0 -45 -17.5 -71t-64.5 -42z" />
    <glyph glyph-name="ldot" unicode="&#x140;" horiz-adv-x="387" 
d="M206 0h-95v725h95v-725zM425 381h-143v118h143v-118z" />
    <glyph glyph-name="lslash" unicode="&#x142;" horiz-adv-x="317" 
d="M274 457l-68 -54v-403h-95v328l-68 -54v65l68 54v332h95v-257l68 54v-65z" />
    <glyph glyph-name="nacute" unicode="&#x144;" horiz-adv-x="862" 
d="M106 500h94v-123q39 70 112 106t175 36q143 0 218 -70t75 -203v-246h-96v222q0 216 -224 216q-78 0 -136.5 -26t-90.5 -74.5t-32 -113.5v-224h-95v500zM589 730h122l-183 -151h-103z" />
    <glyph glyph-name="napostrophe" unicode="&#x149;" horiz-adv-x="864" 
d="M108 500h94v-123q39 70 112 106t175 36q143 0 218 -70t75 -203v-246h-96v222q0 216 -224 216q-78 0 -136.5 -26t-90.5 -74.5t-32 -113.5v-224h-95v500zM44 563q32 12 42 26t10 35h-63v86h113v-68q0 -44 -17.5 -69.5t-65.5 -40.5z" />
    <glyph glyph-name="ncaron" unicode="&#x148;" horiz-adv-x="862" 
d="M106 500h94v-123q39 70 112 106t175 36q143 0 218 -70t75 -203v-246h-96v222q0 216 -224 216q-78 0 -136.5 -26t-90.5 -74.5t-32 -113.5v-224h-95v500zM354 725l123 -110l123 110h97l-164 -151h-112l-164 151h97z" />
    <glyph glyph-name="uni0146" unicode="&#x146;" horiz-adv-x="862" 
d="M106 500h94v-123q39 70 112 106t175 36q143 0 218 -70t75 -203v-246h-96v222q0 216 -224 216q-78 0 -136.5 -26t-90.5 -74.5t-32 -113.5v-224h-95v500zM386 -205q32 12 42.5 26.5t10.5 37.5h-64v86h113v-69q0 -45 -17.5 -71t-64.5 -42z" />
    <glyph glyph-name="ntilde" unicode="&#xf1;" horiz-adv-x="862" 
d="M106 500h94v-123q39 70 112 106t175 36q143 0 218 -70t75 -203v-246h-96v222q0 216 -224 216q-78 0 -136.5 -26t-90.5 -74.5t-32 -113.5v-224h-95v500zM516.5 596q-26.5 10 -58.5 29q-27 15 -44.5 22.5t-40.5 7.5q-31 0 -51.5 -16.5t-27.5 -45.5l-67 13q11 55 49.5 85
t98.5 30q37 0 63 -10t58 -29q27 -15 44.5 -22.5t40.5 -7.5q32 0 52.5 16t26.5 46l68 -13q-11 -55 -49.5 -85t-98.5 -30q-37 0 -63.5 10z" />
    <glyph glyph-name="eng" unicode="&#x14b;" horiz-adv-x="862" 
d="M705 449q75 -70 75 -203v-269q0 -84 -49 -132.5t-168 -48.5q-47 0 -74 6v77q35 -5 78 -5q60 0 88.5 25.5t28.5 92.5v230q0 216 -224 216q-78 0 -136.5 -26t-90.5 -74.5t-32 -113.5v-224h-95v500h94v-123q39 70 112 106t175 36q143 0 218 -70z" />
    <glyph glyph-name="oacute" unicode="&#xf3;" horiz-adv-x="795" 
d="M211 14.5q-82 33.5 -127 94.5t-45 141t45 141t127 94.5t187 33.5t187 -33.5t127 -94.5t45 -141t-45 -141t-127 -94.5t-187 -33.5t-187 33.5zM533.5 83.5q58.5 23.5 90.5 66.5t32 100t-32 100t-90.5 66.5t-135.5 23.5q-78 0 -136.5 -23.5t-90 -66.5t-31.5 -100t31.5 -100
t90 -66.5t136.5 -23.5q77 0 135.5 23.5zM510 730h122l-183 -151h-103z" />
    <glyph glyph-name="obreve" unicode="&#x14f;" horiz-adv-x="795" 
d="M211 14.5q-82 33.5 -127 94.5t-45 141t45 141t127 94.5t187 33.5t187 -33.5t127 -94.5t45 -141t-45 -141t-127 -94.5t-187 -33.5t-187 33.5zM533.5 83.5q58.5 23.5 90.5 66.5t32 100t-32 100t-90.5 66.5t-135.5 23.5q-78 0 -136.5 -23.5t-90 -66.5t-31.5 -100t31.5 -100
t90 -66.5t136.5 -23.5q77 0 135.5 23.5zM314.5 657q30.5 -25 83.5 -25t83 25t34 73h78q-6 -75 -57.5 -115.5t-137.5 -40.5q-87 0 -138.5 40.5t-57.5 115.5h78q4 -48 34.5 -73z" />
    <glyph glyph-name="ocircumflex" unicode="&#xf4;" horiz-adv-x="795" 
d="M211 14.5q-82 33.5 -127 94.5t-45 141t45 141t127 94.5t187 33.5t187 -33.5t127 -94.5t45 -141t-45 -141t-127 -94.5t-187 -33.5t-187 33.5zM533.5 83.5q58.5 23.5 90.5 66.5t32 100t-32 100t-90.5 66.5t-135.5 23.5q-78 0 -136.5 -23.5t-90 -66.5t-31.5 -100t31.5 -100
t90 -66.5t136.5 -23.5q77 0 135.5 23.5zM521 579l-123 110l-123 -110h-97l164 151h112l164 -151h-97z" />
    <glyph glyph-name="odieresis" unicode="&#xf6;" horiz-adv-x="795" 
d="M211 14.5q-82 33.5 -127 94.5t-45 141t45 141t127 94.5t187 33.5t187 -33.5t127 -94.5t45 -141t-45 -141t-127 -94.5t-187 -33.5t-187 33.5zM533.5 83.5q58.5 23.5 90.5 66.5t32 100t-32 100t-90.5 66.5t-135.5 23.5q-78 0 -136.5 -23.5t-90 -66.5t-31.5 -100t31.5 -100
t90 -66.5t136.5 -23.5q77 0 135.5 23.5zM177 710h122v-113h-122v113zM498 710h121v-113h-121v113z" />
    <glyph glyph-name="oe" unicode="&#x153;" horiz-adv-x="1410" 
d="M1362 223h-606q5 -77 72.5 -120.5t187.5 -43.5q182 0 256 104l81 -39q-51 -72 -134 -107.5t-204 -35.5q-109 0 -189 31t-124 90q-44 -56 -121 -88.5t-183 -32.5q-113 0 -194.5 37t-123 98t-41.5 134t41.5 134.5t122.5 98t195 36.5q106 0 183.5 -32.5t121.5 -88.5
q44 59 122.5 90t182.5 31q109 0 188.5 -31t122.5 -90t43 -139v-36zM1263 294q-1 49 -35 84t-92 53.5t-128 18.5q-108 0 -176.5 -42.5t-75.5 -114.5h507v1zM538.5 85q58.5 25 88.5 68t30 97q0 53 -30 96.5t-88.5 68.5t-140.5 25t-140.5 -25t-88 -68t-29.5 -97t29.5 -97
t88 -68t140.5 -25t140.5 25z" />
    <glyph glyph-name="ograve" unicode="&#xf2;" horiz-adv-x="795" 
d="M211 14.5q-82 33.5 -127 94.5t-45 141t45 141t127 94.5t187 33.5t187 -33.5t127 -94.5t45 -141t-45 -141t-127 -94.5t-187 -33.5t-187 33.5zM533.5 83.5q58.5 23.5 90.5 66.5t32 100t-32 100t-90.5 66.5t-135.5 23.5q-78 0 -136.5 -23.5t-90 -66.5t-31.5 -100t31.5 -100
t90 -66.5t136.5 -23.5q77 0 135.5 23.5zM348 579l-183 151h122l164 -151h-103z" />
    <glyph glyph-name="ohungarumlaut" unicode="&#x151;" horiz-adv-x="795" 
d="M211 14.5q-82 33.5 -127 94.5t-45 141t45 141t127 94.5t187 33.5t187 -33.5t127 -94.5t45 -141t-45 -141t-127 -94.5t-187 -33.5t-187 33.5zM533.5 83.5q58.5 23.5 90.5 66.5t32 100t-32 100t-90.5 66.5t-135.5 23.5q-78 0 -136.5 -23.5t-90 -66.5t-31.5 -100t31.5 -100
t90 -66.5t136.5 -23.5q77 0 135.5 23.5zM412 730h97l-159 -151h-89zM597 730h97l-159 -151h-89z" />
    <glyph glyph-name="omacron" unicode="&#x14d;" horiz-adv-x="795" 
d="M211 14.5q-82 33.5 -127 94.5t-45 141t45 141t127 94.5t187 33.5t187 -33.5t127 -94.5t45 -141t-45 -141t-127 -94.5t-187 -33.5t-187 33.5zM533.5 83.5q58.5 23.5 90.5 66.5t32 100t-32 100t-90.5 66.5t-135.5 23.5q-78 0 -136.5 -23.5t-90 -66.5t-31.5 -100t31.5 -100
t90 -66.5t136.5 -23.5q77 0 135.5 23.5zM165 675h466v-65h-466v65z" />
    <glyph glyph-name="ordfeminine" unicode="&#xaa;" horiz-adv-x="627" 
d="M104.5 325q-49.5 29 -49.5 82q0 59 49.5 84t138.5 31l215 12v8q0 92 -141 92q-66 0 -105.5 -20t-47.5 -59h-96q10 62 77.5 98t171.5 36q118 0 174.5 -40t56.5 -120v-96q0 -73 8 -123h-92q-4 38 -4 74q-25 -41 -82 -64.5t-138 -23.5q-86 0 -135.5 29zM368 365q43 15 67 41
t24 59v27l-188 -13q-69 -4 -96 -20t-27 -46t32.5 -46.5t90.5 -16.5q54 0 97 15z" />
    <glyph glyph-name="ordmasculine" unicode="&#xba;" horiz-adv-x="612" 
d="M166 320.5q-61 24.5 -94.5 69t-33.5 103.5t33.5 103.5t94.5 68.5t141 24t141 -24t94 -68.5t33 -103.5t-33 -103.5t-94 -69t-141 -24.5t-141 24.5zM434 394q48 37 48 99t-48 98.5t-127 36.5q-80 0 -127.5 -36.5t-47.5 -98.5q0 -63 47.5 -99.5t127.5 -36.5q79 0 127 37z
" />
    <glyph glyph-name="oslash" unicode="&#xf8;" horiz-adv-x="795" 
d="M757 250q0 -80 -45 -141t-127 -94.5t-187 -33.5q-139 0 -233 57l-83 -63l-41 43l75 56q-77 72 -77 176q0 80 45 141t127 94.5t187 33.5q137 0 232 -56l82 62l42 -44l-74 -55q77 -72 77 -176zM189 130l367 277q-66 33 -158 33q-78 0 -136.5 -23.5t-90 -66.5t-31.5 -100
q0 -73 49 -120zM533.5 83.5q58.5 23.5 90.5 66.5t32 100q0 73 -49 120l-368 -277q66 -33 159 -33q77 0 135.5 23.5z" />
    <glyph glyph-name="oslashacute" unicode="&#x1ff;" horiz-adv-x="795" 
d="M757 250q0 -80 -45 -141t-127 -94.5t-187 -33.5q-139 0 -233 57l-83 -63l-41 43l75 56q-77 72 -77 176q0 80 45 141t127 94.5t187 33.5q137 0 232 -56l82 62l42 -44l-74 -55q77 -72 77 -176zM189 130l367 277q-66 33 -158 33q-78 0 -136.5 -23.5t-90 -66.5t-31.5 -100
q0 -73 49 -120zM533.5 83.5q58.5 23.5 90.5 66.5t32 100q0 73 -49 120l-368 -277q66 -33 159 -33q77 0 135.5 23.5zM524 730h122l-183 -151h-103z" />
    <glyph glyph-name="otilde" unicode="&#xf5;" horiz-adv-x="795" 
d="M211 14.5q-82 33.5 -127 94.5t-45 141t45 141t127 94.5t187 33.5t187 -33.5t127 -94.5t45 -141t-45 -141t-127 -94.5t-187 -33.5t-187 33.5zM533.5 83.5q58.5 23.5 90.5 66.5t32 100t-32 100t-90.5 66.5t-135.5 23.5q-78 0 -136.5 -23.5t-90 -66.5t-31.5 -100t31.5 -100
t90 -66.5t136.5 -23.5q77 0 135.5 23.5zM436.5 596q-26.5 10 -58.5 29q-27 15 -44.5 22.5t-40.5 7.5q-31 0 -51.5 -16.5t-27.5 -45.5l-67 13q11 55 49.5 85t98.5 30q37 0 63 -10t58 -29q27 -15 44.5 -22.5t40.5 -7.5q32 0 52.5 16t26.5 46l68 -13q-11 -55 -49.5 -85
t-98.5 -30q-37 0 -63.5 10z" />
    <glyph glyph-name="racute" unicode="&#x155;" horiz-adv-x="501" 
d="M275.5 471.5q59.5 43.5 139.5 43.5q41 0 66 -6v-92q-34 6 -67 6q-57 0 -94 -15t-65 -46q-54 -58 -54 -175v-187h-95v500h88v-145q22 73 81.5 116.5zM376 730h122l-183 -151h-103z" />
    <glyph glyph-name="rcaron" unicode="&#x159;" horiz-adv-x="501" 
d="M275.5 471.5q59.5 43.5 139.5 43.5q41 0 66 -6v-92q-34 6 -67 6q-57 0 -94 -15t-65 -46q-54 -58 -54 -175v-187h-95v500h88v-145q22 73 81.5 116.5zM141 725l123 -110l123 110h97l-164 -151h-112l-164 151h97z" />
    <glyph glyph-name="uni0157" unicode="&#x157;" horiz-adv-x="501" 
d="M275.5 471.5q59.5 43.5 139.5 43.5q41 0 66 -6v-92q-34 6 -67 6q-57 0 -94 -15t-65 -46q-54 -58 -54 -175v-187h-95v500h88v-145q22 73 81.5 116.5zM109 -205q32 12 42.5 26.5t10.5 37.5h-64v86h113v-69q0 -45 -17.5 -71t-64.5 -42z" />
    <glyph glyph-name="sacute" unicode="&#x15b;" horiz-adv-x="752" 
d="M187 17.5q-85 36.5 -132 107.5l79 43q70 -113 284 -113q183 0 183 87q0 31 -22 45t-81 18l-241 19q-92 8 -137 41.5t-45 97.5q0 73 75 114.5t208 41.5q126 0 210.5 -32t121.5 -92l-81 -39q-37 47 -97 68.5t-163 21.5q-180 0 -180 -79q0 -30 25.5 -45.5t77.5 -19.5
l243 -19q96 -8 138 -40.5t42 -94.5q0 -78 -70.5 -122.5t-218.5 -44.5q-134 0 -219 36.5zM486 730h122l-183 -151h-103z" />
    <glyph glyph-name="scaron" unicode="&#x161;" horiz-adv-x="752" 
d="M187 17.5q-85 36.5 -132 107.5l79 43q70 -113 284 -113q183 0 183 87q0 31 -22 45t-81 18l-241 19q-92 8 -137 41.5t-45 97.5q0 73 75 114.5t208 41.5q126 0 210.5 -32t121.5 -92l-81 -39q-37 47 -97 68.5t-163 21.5q-180 0 -180 -79q0 -30 25.5 -45.5t77.5 -19.5
l243 -19q96 -8 138 -40.5t42 -94.5q0 -78 -70.5 -122.5t-218.5 -44.5q-134 0 -219 36.5zM251 725l123 -110l123 110h97l-164 -151h-112l-164 151h97z" />
    <glyph glyph-name="scedilla" unicode="&#x15f;" horiz-adv-x="752" 
d="M625.5 26.5q-69.5 -44.5 -214.5 -45.5l-24 -32q22 14 63 14q50 0 78.5 -20.5t28.5 -56.5q0 -39 -38 -63.5t-99 -24.5q-47 0 -81.5 16t-49.5 45l65 13q17 -27 67 -27q29 0 45.5 10.5t16.5 28.5q0 19 -14.5 29.5t-42.5 10.5q-35 0 -61 -16l-49 12l38 63q-111 7 -184 42.5
t-115 99.5l79 43q70 -113 284 -113q183 0 183 87q0 31 -22 45t-81 18l-241 19q-92 8 -137 41.5t-45 97.5q0 73 75 114.5t208 41.5q126 0 210.5 -32t121.5 -92l-81 -39q-37 47 -97 68.5t-163 21.5q-180 0 -180 -79q0 -30 25.5 -45.5t77.5 -19.5l243 -19q96 -8 138 -40.5
t42 -94.5q0 -77 -69.5 -121.5z" />
    <glyph glyph-name="scircumflex" unicode="&#x15d;" horiz-adv-x="752" 
d="M187 17.5q-85 36.5 -132 107.5l79 43q70 -113 284 -113q183 0 183 87q0 31 -22 45t-81 18l-241 19q-92 8 -137 41.5t-45 97.5q0 73 75 114.5t208 41.5q126 0 210.5 -32t121.5 -92l-81 -39q-37 47 -97 68.5t-163 21.5q-180 0 -180 -79q0 -30 25.5 -45.5t77.5 -19.5
l243 -19q96 -8 138 -40.5t42 -94.5q0 -78 -70.5 -122.5t-218.5 -44.5q-134 0 -219 36.5zM497 579l-123 110l-123 -110h-97l164 151h112l164 -151h-97z" />
    <glyph glyph-name="uni0219" unicode="&#x219;" horiz-adv-x="752" 
d="M187 17.5q-85 36.5 -132 107.5l79 43q70 -113 284 -113q183 0 183 87q0 31 -22 45t-81 18l-241 19q-92 8 -137 41.5t-45 97.5q0 73 75 114.5t208 41.5q126 0 210.5 -32t121.5 -92l-81 -39q-37 47 -97 68.5t-163 21.5q-180 0 -180 -79q0 -30 25.5 -45.5t77.5 -19.5
l243 -19q96 -8 138 -40.5t42 -94.5q0 -78 -70.5 -122.5t-218.5 -44.5q-134 0 -219 36.5zM353 -205q32 12 42.5 26.5t10.5 37.5h-64v86h113v-69q0 -45 -17.5 -71t-64.5 -42z" />
    <glyph glyph-name="tbar" unicode="&#x167;" horiz-adv-x="567" 
d="M523 87v-81q-19 -8 -56.5 -14t-72.5 -6q-126 0 -172.5 54.5t-46.5 143.5v56h-157v71h157v114h-157v75h157v130l96 39v-169h250v-75h-250v-114h251v-71h-251v-47q0 -63 33.5 -91.5t100.5 -28.5q57 0 118 14z" />
    <glyph glyph-name="tcaron" unicode="&#x165;" horiz-adv-x="567" 
d="M18 500h157v130l96 39v-169h250v-75h-250v-232q0 -63 33.5 -91.5t100.5 -28.5q57 0 118 14v-81q-19 -8 -56.5 -14t-72.5 -6q-126 0 -172.5 54.5t-46.5 143.5v241h-157v75zM368 563q32 12 42 26t10 35h-63v86h113v-68q0 -44 -17.5 -69.5t-65.5 -40.5z" />
    <glyph glyph-name="uni0163" unicode="&#x163;" horiz-adv-x="567" 
d="M506 -57.5q28 -20.5 28 -56.5q0 -39 -37.5 -63.5t-98.5 -24.5q-48 0 -82 16t-49 45l64 13q17 -27 68 -27q29 0 45.5 10.5t16.5 28.5q0 19 -15 29.5t-43 10.5q-35 0 -61 -16l-49 12l43 70q-92 13 -126.5 64.5t-34.5 129.5v241h-157v75h157v130l96 39v-169h250v-75h-250
v-232q0 -63 33.5 -91.5t100.5 -28.5q57 0 118 14v-81q-19 -8 -56.5 -14t-72.5 -6h-2l-27 -37q22 14 63 14q50 0 78 -20.5z" />
    <glyph glyph-name="uni021B" unicode="&#x21b;" horiz-adv-x="567" 
d="M18 500h157v130l96 39v-169h250v-75h-250v-232q0 -63 33.5 -91.5t100.5 -28.5q57 0 118 14v-81q-19 -8 -56.5 -14t-72.5 -6q-126 0 -172.5 54.5t-46.5 143.5v241h-157v75zM330 -205q32 12 42.5 26.5t10.5 37.5h-64v86h113v-69q0 -45 -17.5 -71t-64.5 -42z" />
    <glyph glyph-name="thorn" unicode="&#xfe;" horiz-adv-x="869" 
d="M111 725h95v-328q39 57 118 89.5t176 32.5q98 0 173 -33.5t116 -94t41 -140.5q0 -77 -43 -138.5t-119 -96.5t-173 -35q-91 0 -171.5 31.5t-117.5 82.5v-290h-95v920zM658.5 112q70.5 51 70.5 139q0 87 -68 138t-186 51q-78 0 -139.5 -23t-96.5 -63.5t-35 -91.5v-21
q0 -53 33 -94t93 -63.5t137 -22.5q121 0 191.5 51z" />
    <glyph glyph-name="uacute" unicode="&#xfa;" horiz-adv-x="849" 
d="M153 46q-71 65 -71 199v255h96v-247q0 -110 60 -151.5t147 -41.5q91 0 150 34t86 84.5t27 101.5v220h96v-500h-95v136q-33 -76 -107.5 -115.5t-176.5 -39.5q-141 0 -212 65zM524 730h122l-183 -151h-103z" />
    <glyph glyph-name="ubreve" unicode="&#x16d;" horiz-adv-x="849" 
d="M153 46q-71 65 -71 199v255h96v-247q0 -110 60 -151.5t147 -41.5q91 0 150 34t86 84.5t27 101.5v220h96v-500h-95v136q-33 -76 -107.5 -115.5t-176.5 -39.5q-141 0 -212 65zM327.5 657q30.5 -25 83.5 -25t83 25t34 73h78q-6 -75 -57.5 -115.5t-137.5 -40.5
q-87 0 -138.5 40.5t-57.5 115.5h78q4 -48 34.5 -73z" />
    <glyph glyph-name="ucircumflex" unicode="&#xfb;" horiz-adv-x="849" 
d="M153 46q-71 65 -71 199v255h96v-247q0 -110 60 -151.5t147 -41.5q91 0 150 34t86 84.5t27 101.5v220h96v-500h-95v136q-33 -76 -107.5 -115.5t-176.5 -39.5q-141 0 -212 65zM534 579l-123 110l-123 -110h-97l164 151h112l164 -151h-97z" />
    <glyph glyph-name="udieresis" unicode="&#xfc;" horiz-adv-x="849" 
d="M153 46q-71 65 -71 199v255h96v-247q0 -110 60 -151.5t147 -41.5q91 0 150 34t86 84.5t27 101.5v220h96v-500h-95v136q-33 -76 -107.5 -115.5t-176.5 -39.5q-141 0 -212 65zM191 710h122v-113h-122v113zM512 710h121v-113h-121v113z" />
    <glyph glyph-name="ugrave" unicode="&#xf9;" horiz-adv-x="849" 
d="M153 46q-71 65 -71 199v255h96v-247q0 -110 60 -151.5t147 -41.5q91 0 150 34t86 84.5t27 101.5v220h96v-500h-95v136q-33 -76 -107.5 -115.5t-176.5 -39.5q-141 0 -212 65zM361 579l-183 151h122l164 -151h-103z" />
    <glyph glyph-name="uhungarumlaut" unicode="&#x171;" horiz-adv-x="849" 
d="M153 46q-71 65 -71 199v255h96v-247q0 -110 60 -151.5t147 -41.5q91 0 150 34t86 84.5t27 101.5v220h96v-500h-95v136q-33 -76 -107.5 -115.5t-176.5 -39.5q-141 0 -212 65zM426 730h97l-159 -151h-89zM611 730h97l-159 -151h-89z" />
    <glyph glyph-name="umacron" unicode="&#x16b;" horiz-adv-x="849" 
d="M153 46q-71 65 -71 199v255h96v-247q0 -110 60 -151.5t147 -41.5q91 0 150 34t86 84.5t27 101.5v220h96v-500h-95v136q-33 -76 -107.5 -115.5t-176.5 -39.5q-141 0 -212 65zM178 675h466v-65h-466v65z" />
    <glyph glyph-name="uogonek" unicode="&#x173;" horiz-adv-x="849" 
d="M766 -117q-10 -40 -46 -61.5t-93 -21.5q-52 0 -85.5 25.5t-33.5 64.5q0 44 35.5 76t105.5 49v121q-33 -76 -107.5 -115.5t-176.5 -39.5q-141 0 -212 65t-71 199v255h96v-247q0 -110 60 -151.5t147 -41.5q91 0 150 34t86 84.5t27 101.5v220h96v-500h-5
q-75 -10 -115.5 -38.5t-40.5 -62.5q0 -22 15 -36t38 -14q46 0 65 48z" />
    <glyph glyph-name="uring" unicode="&#x16f;" horiz-adv-x="849" 
d="M153 46q-71 65 -71 199v255h96v-247q0 -110 60 -151.5t147 -41.5q91 0 150 34t86 84.5t27 101.5v220h96v-500h-95v136q-33 -76 -107.5 -115.5t-176.5 -39.5q-141 0 -212 65zM295 586q-43 28 -43 75t43 75t116 28t116 -28t43 -75t-43 -75t-116 -28t-116 28zM483.5 618.5
q26.5 15.5 26.5 42.5q0 26 -26.5 41.5t-72.5 15.5t-72 -15.5t-26 -41.5q0 -27 26 -42.5t72 -15.5t72.5 15.5z" />
    <glyph glyph-name="utilde" unicode="&#x169;" horiz-adv-x="849" 
d="M153 46q-71 65 -71 199v255h96v-247q0 -110 60 -151.5t147 -41.5q91 0 150 34t86 84.5t27 101.5v220h96v-500h-95v136q-33 -76 -107.5 -115.5t-176.5 -39.5q-141 0 -212 65zM450.5 596q-26.5 10 -58.5 29q-27 15 -44.5 22.5t-40.5 7.5q-31 0 -51.5 -16.5t-27.5 -45.5
l-67 13q11 55 49.5 85t98.5 30q37 0 63 -10t58 -29q27 -15 44.5 -22.5t40.5 -7.5q32 0 52.5 16t26.5 46l68 -13q-11 -55 -49.5 -85t-98.5 -30q-37 0 -63.5 10z" />
    <glyph glyph-name="wacute" unicode="&#x1e83;" horiz-adv-x="1113" 
d="M15 500h102l169 -384q9 -22 12 -39h2q2 13 14 39l189 384h107l189 -384q12 -26 14 -39h2q3 12 12 39l169 384h102l-224 -500h-117l-186 378q-11 25 -13 43h-3q0 -17 -13 -43l-186 -378h-116zM669 730h122l-183 -151h-103z" />
    <glyph glyph-name="wcircumflex" unicode="&#x175;" horiz-adv-x="1113" 
d="M15 500h102l169 -384q9 -22 12 -39h2q2 13 14 39l189 384h107l189 -384q12 -26 14 -39h2q3 12 12 39l169 384h102l-224 -500h-117l-186 378q-11 25 -13 43h-3q0 -17 -13 -43l-186 -378h-116zM680 579l-123 110l-123 -110h-97l164 151h112l164 -151h-97z" />
    <glyph glyph-name="wdieresis" unicode="&#x1e85;" horiz-adv-x="1113" 
d="M15 500h102l169 -384q9 -22 12 -39h2q2 13 14 39l189 384h107l189 -384q12 -26 14 -39h2q3 12 12 39l169 384h102l-224 -500h-117l-186 378q-11 25 -13 43h-3q0 -17 -13 -43l-186 -378h-116zM336 710h122v-113h-122v113zM657 710h121v-113h-121v113z" />
    <glyph glyph-name="wgrave" unicode="&#x1e81;" horiz-adv-x="1113" 
d="M15 500h102l169 -384q9 -22 12 -39h2q2 13 14 39l189 384h107l189 -384q12 -26 14 -39h2q3 12 12 39l169 384h102l-224 -500h-117l-186 378q-11 25 -13 43h-3q0 -17 -13 -43l-186 -378h-116zM507 579l-183 151h122l164 -151h-103z" />
    <glyph glyph-name="yacute" unicode="&#xfd;" horiz-adv-x="710" 
d="M47 -209v82q25 -4 54 -4q75 0 128 31t78 84l7 15l-314 501h115l233 -389q8 -15 14 -33h2q4 12 14 32l224 390h107l-310 -531q-53 -97 -122 -140t-167 -43q-36 0 -63 5zM467 730h122l-183 -151h-103z" />
    <glyph glyph-name="ycircumflex" unicode="&#x177;" horiz-adv-x="710" 
d="M47 -209v82q25 -4 54 -4q75 0 128 31t78 84l7 15l-314 501h115l233 -389q8 -15 14 -33h2q4 12 14 32l224 390h107l-310 -531q-53 -97 -122 -140t-167 -43q-36 0 -63 5zM478 579l-123 110l-123 -110h-97l164 151h112l164 -151h-97z" />
    <glyph glyph-name="ydieresis" unicode="&#xff;" horiz-adv-x="710" 
d="M47 -209v82q25 -4 54 -4q75 0 128 31t78 84l7 15l-314 501h115l233 -389q8 -15 14 -33h2q4 12 14 32l224 390h107l-310 -531q-53 -97 -122 -140t-167 -43q-36 0 -63 5zM134 710h122v-113h-122v113zM455 710h121v-113h-121v113z" />
    <glyph glyph-name="ygrave" unicode="&#x1ef3;" horiz-adv-x="710" 
d="M47 -209v82q25 -4 54 -4q75 0 128 31t78 84l7 15l-314 501h115l233 -389q8 -15 14 -33h2q4 12 14 32l224 390h107l-310 -531q-53 -97 -122 -140t-167 -43q-36 0 -63 5zM305 579l-183 151h122l164 -151h-103z" />
    <glyph glyph-name="zacute" unicode="&#x17a;" horiz-adv-x="739" 
d="M540 423h-461v77h598v-76l-487 -347h506v-77h-639v77zM487 730h122l-183 -151h-103z" />
    <glyph glyph-name="zcaron" unicode="&#x17e;" horiz-adv-x="739" 
d="M540 423h-461v77h598v-76l-487 -347h506v-77h-639v77zM251 725l123 -110l123 110h97l-164 -151h-112l-164 151h97z" />
    <glyph glyph-name="zdotaccent" unicode="&#x17c;" horiz-adv-x="739" 
d="M540 423h-461v77h598v-76l-487 -347h506v-77h-639v77zM317 707h114v-116h-114v116z" />
    <glyph glyph-name="germandbls" unicode="&#xdf;" horiz-adv-x="875" 
d="M198.5 665.5q89.5 68.5 255.5 68.5q98 0 171 -23t112.5 -67t39.5 -105q0 -62 -43.5 -104t-120.5 -55q100 -10 155 -57.5t55 -123.5q0 -106 -87 -160t-250 -54q-75 0 -175 19v74q82 -19 164 -19q127 0 189 33t62 103q0 142 -258 142h-148v71h127q116 0 171 31t55 95
q0 63 -56.5 95t-164.5 32q-126 0 -186.5 -47.5t-60.5 -147.5v-466h-96v471q0 126 89.5 194.5z" />
    <glyph glyph-name="eth" unicode="&#xf0;" horiz-adv-x="841" 
d="M764 267q0 -88 -44 -152.5t-126.5 -99t-196.5 -34.5t-194.5 31.5t-122 90.5t-41.5 139q0 78 42 137.5t121.5 92t187.5 32.5q91 0 158.5 -31.5t107.5 -89.5h2q-8 53 -43.5 102.5t-94.5 91.5l-230 -42l-16 50l178 33q-62 33 -139 56l58 62q116 -42 196 -97l135 25l18 -51
l-97 -18q141 -126 141 -328zM596 109.5q72 48.5 72 132.5q0 57 -33 99.5t-94 65.5t-143 23q-125 0 -191.5 -50t-66.5 -138q0 -85 67 -133t191 -48q126 0 198 48.5z" />
    <glyph glyph-name="grave" unicode="`" horiz-adv-x="600" 
d="M171 579l-183 151h122l164 -151h-103z" />
    <glyph glyph-name="acute" unicode="&#xb4;" horiz-adv-x="600" 
d="M213 730h122l-183 -151h-103z" />
    <glyph glyph-name="circumflex" unicode="&#x2c6;" horiz-adv-x="600" 
d="M363 579l-123 110l-123 -110h-97l164 151h112l164 -151h-97z" />
    <glyph glyph-name="tilde" unicode="&#x2dc;" horiz-adv-x="600" 
d="M340.5 596q-26.5 10 -58.5 29q-27 15 -44.5 22.5t-40.5 7.5q-31 0 -51.5 -16.5t-27.5 -45.5l-67 13q11 55 49.5 85t98.5 30q37 0 63 -10t58 -29q27 -15 44.5 -22.5t40.5 -7.5q32 0 52.5 16t26.5 46l68 -13q-11 -55 -49.5 -85t-98.5 -30q-37 0 -63.5 10z" />
    <glyph glyph-name="caron" unicode="&#x2c7;" horiz-adv-x="600" 
d="M117 725l123 -110l123 110h97l-164 -151h-112l-164 151h97z" />
    <glyph glyph-name="dieresis" unicode="&#xa8;" horiz-adv-x="600" 
d="M49 710h122v-113h-122v113zM370 710h121v-113h-121v113z" />
    <glyph glyph-name="macron" unicode="&#xaf;" horiz-adv-x="600" 
d="M51 675h466v-65h-466v65z" />
    <glyph glyph-name="breve" unicode="&#x2d8;" horiz-adv-x="600" 
d="M168.5 657q30.5 -25 83.5 -25t83 25t34 73h78q-6 -75 -57.5 -115.5t-137.5 -40.5q-87 0 -138.5 40.5t-57.5 115.5h78q4 -48 34.5 -73z" />
    <glyph glyph-name="ring" unicode="&#x2da;" horiz-adv-x="600" 
d="M66 586q-43 28 -43 75t43 75t116 28t116 -28t43 -75t-43 -75t-116 -28t-116 28zM254.5 618.5q26.5 15.5 26.5 42.5q0 26 -26.5 41.5t-72.5 15.5t-72 -15.5t-26 -41.5q0 -27 26 -42.5t72 -15.5t72.5 15.5z" />
    <glyph glyph-name="hungarumlaut" unicode="&#x2dd;" horiz-adv-x="600" 
d="M205 730h97l-159 -151h-89zM390 730h97l-159 -151h-89z" />
    <glyph glyph-name="dotaccent" unicode="&#x2d9;" horiz-adv-x="600" 
d="M49 707h114v-116h-114v116z" />
    <glyph glyph-name="cedilla" unicode="&#xb8;" horiz-adv-x="600" 
d="M193 7l-43 -58q22 14 63 14q49 0 77.5 -20.5t28.5 -56.5q0 -39 -37.5 -63.5t-98.5 -24.5q-48 0 -82 16t-50 45l65 13q17 -27 68 -27q29 0 45.5 10.5t16.5 28.5q0 19 -15 29.5t-43 10.5q-35 0 -61 -16l-49 12l54 87h61z" />
    <glyph glyph-name="ogonek" unicode="&#x2db;" horiz-adv-x="600" 
d="M262 -178.5q-36 -21.5 -93 -21.5q-52 0 -85.5 25.5t-33.5 64.5q0 44 36 76t106 49l89 -15q-75 -10 -115.5 -38.5t-40.5 -62.5q0 -22 15 -36t38 -14q47 0 65 48l65 -14q-10 -40 -46 -61.5z" />
    <glyph glyph-name="comma" unicode="," horiz-adv-x="330" 
d="M99 -91q39 10 55 32.5t16 56.5v2h-76v130h142v-112q0 -67 -26.5 -105.5t-87.5 -54.5z" />
    <glyph glyph-name="semicolon" unicode=";" horiz-adv-x="331" 
d="M237 382h-143v118h143v-118zM100 -91q39 10 55 32.5t16 56.5v2h-76v130h142v-112q0 -67 -26.5 -105.5t-87.5 -54.5z" />
    <glyph glyph-name="colon" unicode=":" horiz-adv-x="331" 
d="M237 382h-143v118h143v-118zM237 0h-143v118h143v-118z" />
    <glyph glyph-name="period" unicode="." horiz-adv-x="331" 
d="M237 0h-143v118h143v-118z" />
    <glyph glyph-name="ellipsis" unicode="&#x2026;" horiz-adv-x="1014" 
d="M237 0h-143v115h143v-115zM578 0h-142v115h142v-115zM920 0h-143v115h143v-115z" />
    <glyph glyph-name="hyphen" unicode="-" horiz-adv-x="634" 
d="M576 320v-82h-518v82h518z" />
    <glyph glyph-name="exclam" unicode="!" horiz-adv-x="375" 
d="M125 725h125l-24 -518h-77zM259 0h-143v115h143v-115z" />
    <glyph glyph-name="exclamdown" unicode="&#xa1;" horiz-adv-x="375" 
d="M116 465v115h143v-115h-143zM226 373l24 -518h-125l24 518h77z" />
    <glyph glyph-name="question" unicode="?" horiz-adv-x="742" 
d="M300 220q0 51 27.5 84t81.5 53l86 34q52 21 78 47t26 80q0 35 -25 66t-74 50t-118 19q-115 0 -181.5 -44t-66.5 -122q0 -18 1.5 -31t6.5 -27l-106 12q-8 23 -8 54q0 71 42 125t122 84t191 30q104 0 176.5 -28t109 -76t36.5 -108q0 -56 -20.5 -93.5t-53 -59.5t-80.5 -41
l-81 -32q-36 -14 -51.5 -33t-15.5 -52v-36h-103v45zM285 115h134v-115h-134v115z" />
    <glyph glyph-name="questiondown" unicode="&#xbf;" horiz-adv-x="742" 
d="M456 465h-134v115h134v-115zM442 360q0 -51 -28 -84t-81 -53l-86 -34q-53 -21 -79 -47t-26 -80q0 -35 25 -66t74.5 -50t118.5 -19q115 0 181.5 44t66.5 122q0 34 -8 58l105 -12q9 -22 9 -54q0 -71 -42 -125t-122 -84t-191 -30q-105 0 -177.5 28t-108.5 76t-36 108
q0 57 20.5 94t53 59t79.5 41l82 32q36 14 51.5 33t15.5 52v36h103v-45z" />
    <glyph glyph-name="quoteleft" unicode="&#x2018;" horiz-adv-x="330" 
d="M231 677q-39 -11 -55 -33.5t-16 -55.5v-2h76v-130h-142v111q0 67 26.5 105.5t87.5 55.5z" />
    <glyph glyph-name="quoteright" unicode="&#x2019;" horiz-adv-x="330" 
d="M99 489q39 10 55 32.5t16 56.5v2h-76v130h142v-112q0 -67 -26.5 -105.5t-87.5 -54.5z" />
    <glyph glyph-name="quotedblleft" unicode="&#x201c;" horiz-adv-x="532" 
d="M231 677q-39 -10 -55 -33t-16 -56v-2h76v-130h-142v111q0 68 26.5 106.5t87.5 54.5zM432 677q-71 -18 -71 -89v-2h76v-130h-141v111q0 68 26.5 106.5t87.5 54.5z" />
    <glyph glyph-name="quotedblright" unicode="&#x201d;" horiz-adv-x="532" 
d="M99 489q39 10 55 33t16 56v2h-76v130h142v-112q0 -67 -26.5 -105.5t-87.5 -54.5zM301 489q71 18 71 89v2h-76v130h141v-112q0 -67 -26.5 -105.5t-86.5 -54.5z" />
    <glyph glyph-name="quotesinglbase" unicode="&#x201a;" horiz-adv-x="330" 
d="M99 -91q39 10 55 32.5t16 56.5v2h-76v130h142v-112q0 -67 -26.5 -105.5t-87.5 -54.5z" />
    <glyph glyph-name="quotedblbase" unicode="&#x201e;" horiz-adv-x="532" 
d="M99 -91q39 10 55 33t16 56v2h-76v130h142v-112q0 -67 -26.5 -105.5t-87.5 -54.5zM301 -91q71 18 71 89v2h-76v130h141v-112q0 -67 -26.5 -105.5t-86.5 -54.5z" />
    <glyph glyph-name="guilsinglleft" unicode="&#x2039;" horiz-adv-x="411" 
d="M34 275l246 207h111l-240 -206l238 -209h-114z" />
    <glyph glyph-name="guilsinglright" unicode="&#x203a;" horiz-adv-x="411" 
d="M22 67l238 209l-240 206h111l246 -207l-241 -208h-114z" />
    <glyph glyph-name="periodcentered" unicode="&#xb7;" horiz-adv-x="331" 
d="M237 282h-143v118h143v-118z" />
    <glyph glyph-name="slash" unicode="/" horiz-adv-x="657" 
d="M45 -117l465 877h102l-465 -877h-102z" />
    <glyph glyph-name="bar" unicode="|" horiz-adv-x="297" 
d="M111 760h76v-877h-76v877z" />
    <glyph glyph-name="endash" unicode="&#x2013;" horiz-adv-x="804" 
d="M746 317v-78h-688v78h688z" />
    <glyph glyph-name="emdash" unicode="&#x2014;" horiz-adv-x="1086" 
d="M1029 318v-80h-971v80h971z" />
    <glyph glyph-name="bullet" unicode="&#x2022;" horiz-adv-x="385" 
d="M121.5 275.5q-27.5 26.5 -27.5 68.5q0 44 28 71.5t70 27.5q43 0 71 -27t28 -72q0 -42 -28 -68.5t-71 -26.5t-70.5 26.5z" />
    <glyph glyph-name="parenleft" unicode="(" horiz-adv-x="377" 
d="M121 73q-61 123 -61 249q0 127 61 249t176 207l71 -44q-207 -172 -207 -413q0 -239 207 -413l-71 -44q-115 86 -176 209z" />
    <glyph glyph-name="parenright" unicode=")" horiz-adv-x="377" 
d="M9 -92q207 173 207 413q0 241 -206 413l70 44q116 -85 176.5 -207t60.5 -249t-60.5 -249.5t-176.5 -208.5z" />
    <glyph glyph-name="bracketleft" unicode="[" horiz-adv-x="401" 
d="M116 763h273v-75h-184v-733h184v-75h-273v883z" />
    <glyph glyph-name="bracketright" unicode="]" horiz-adv-x="401" 
d="M12 -120v75h184v733h-184v75h273v-883h-273z" />
    <glyph glyph-name="braceleft" unicode="{" horiz-adv-x="376" 
d="M161.5 -89q-49.5 32 -49.5 113v176q0 32 -5.5 51t-27 31t-65.5 13v68q44 1 65 11.5t26.5 28.5t5.5 51v154q0 85 50 121t148 36h54v-75h-40q-45 0 -70.5 -8t-38.5 -29.5t-13 -62.5v-131q0 -51 -18 -83.5t-66 -45.5q47 -15 65 -50t18 -85v-148q0 -40 14 -60t40 -26.5
t71 -6.5h38v-75h-53q-99 0 -148.5 32z" />
    <glyph glyph-name="braceright" unicode="}" horiz-adv-x="376" 
d="M12 -121v75h38q45 0 71.5 6.5t40.5 26.5t14 60v148q0 50 17.5 85t65.5 50q-48 13 -66 45.5t-18 83.5v131q0 41 -13 62.5t-39 29.5t-71 8h-39v75h54q98 0 148 -36t50 -121v-154q0 -33 5.5 -51t26 -28.5t64.5 -11.5v-68q-44 -1 -65 -13t-26.5 -31t-5.5 -51v-176
q0 -81 -50 -113t-149 -32h-53z" />
    <glyph glyph-name="guillemotleft" unicode="&#xab;" horiz-adv-x="657" 
d="M34 275l246 207h111l-240 -206l238 -209h-114zM280 275l246 207h111l-240 -206l238 -209h-114z" />
    <glyph glyph-name="guillemotright" unicode="&#xbb;" horiz-adv-x="657" 
d="M22 67l238 209l-240 206h111l246 -207l-241 -208h-114zM268 67l238 209l-240 206h111l246 -207l-241 -208h-114z" />
    <glyph glyph-name="zero" unicode="0" horiz-adv-x="876" 
d="M237 24q-86 48 -133 133t-47 194q0 108 47 191.5t133 130t201 46.5t201.5 -46.5t133 -130t46.5 -191.5q0 -109 -46.5 -194t-133 -133t-201.5 -48t-201 48zM587.5 93.5q63.5 36.5 97 103t33.5 154.5q0 87 -33.5 151.5t-97 100t-149.5 35.5t-149.5 -35.5t-97 -100
t-33.5 -151.5q0 -88 33.5 -154.5t97 -103t149.5 -36.5t149.5 36.5z" />
    <glyph glyph-name="one" unicode="1" horiz-adv-x="485" 
d="M253 540q-23 -29 -73 -49.5t-120 -20.5h-34v88h21q81 1 137.5 38t79.5 99h86v-695h-97v540z" />
    <glyph glyph-name="two" unicode="2" horiz-adv-x="811" 
d="M39 87q173 59 283.5 106t181.5 94q68 46 96 88.5t28 97.5q0 43 -24 79t-76 58.5t-132 22.5q-109 0 -172 -47t-63 -128q0 -22 5 -44l-104 11q-6 20 -6 47q0 67 42 122.5t119.5 88t180.5 32.5q114 0 189.5 -33.5t111 -88t35.5 -118.5q0 -145 -175 -245q-72 -41 -152 -75.5
t-193 -66.5h542v-88h-717v87z" />
    <glyph glyph-name="three" unicode="3" horiz-adv-x="831" 
d="M161.5 42q-93.5 62 -110.5 167l99 12q40 -160 268 -160q122 0 185.5 36t63.5 99q0 73 -60.5 99t-170.5 26h-89v78h86q99 0 154.5 29t55.5 92q0 54 -58 84t-177 30q-116 0 -178.5 -44.5t-71.5 -116.5l-95 18q6 63 46 114t116.5 80.5t186.5 29.5q167 0 249.5 -53t82.5 -140
q0 -70 -50.5 -109.5t-126.5 -46.5q91 -8 147 -49.5t56 -122.5q0 -58 -37 -106.5t-116 -78t-201 -29.5q-161 0 -254.5 62z" />
    <glyph glyph-name="four" unicode="4" horiz-adv-x="795" 
d="M627 178v-178h-95v178h-516v67l489 450h122v-441h156v-76h-156zM535 622h-3q-9 -16 -22.5 -30.5t-45.5 -43.5l-243 -227q-49 -45 -80 -67h391v264q0 73 3 104z" />
    <glyph glyph-name="five" unicode="5" horiz-adv-x="802" 
d="M172 35q-93 55 -119 154l103 18q18 -68 84 -106.5t168 -38.5q116 0 180 46t64 132q0 83 -60.5 126.5t-167.5 43.5q-95 0 -153.5 -31t-95.5 -97l-97 7l49 406h585v-84h-507l-32 -235q33 53 107.5 83.5t175.5 30.5q141 0 219.5 -64t78.5 -186q0 -79 -42.5 -138t-121 -90.5
t-183.5 -31.5q-142 0 -235 55z" />
    <glyph glyph-name="six" unicode="6" horiz-adv-x="835" 
d="M695 413.5q84 -63.5 84 -179.5q0 -74 -43 -131.5t-120 -90t-175 -32.5q-120 0 -206.5 44.5t-132 128t-45.5 200.5q0 113 44.5 194.5t128.5 124.5t201 43q90 0 162.5 -24t118.5 -68t58 -103l-101 -22q-45 136 -239 136q-134 0 -205.5 -72t-70.5 -208v-6v-13
q35 67 114.5 104.5t187.5 37.5q155 0 239 -63.5zM565.5 82.5q53.5 21.5 83 60.5t29.5 91q0 80 -59 121t-175 41q-108 0 -180 -45t-92 -124q28 -81 96 -123.5t173 -42.5q71 0 124.5 21.5z" />
    <glyph glyph-name="seven" unicode="7" horiz-adv-x="713" 
d="M211 16q0 166 94.5 318.5t263.5 275.5h-549v85h677v-76q-368 -248 -368 -594v-25h-118v16z" />
    <glyph glyph-name="eight" unicode="8" horiz-adv-x="835" 
d="M737 306q46 -44 46 -113q0 -66 -43 -114t-124 -73.5t-192 -25.5q-178 0 -275 53t-97 151q0 69 50 114.5t144 64.5q-89 23 -129.5 64t-40.5 106q0 56 42 97t119.5 63t182.5 22q102 0 178 -22.5t117.5 -63.5t41.5 -96q0 -60 -43.5 -101t-121.5 -56q99 -26 145 -70z
M220.5 458.5q43.5 -28.5 139.5 -43.5l121 -18q95 26 135 57t40 77q0 54 -61.5 83t-174.5 29q-116 0 -179.5 -28t-63.5 -80q0 -48 43.5 -76.5zM613.5 95q68.5 35 68.5 97q0 55 -50.5 86t-166.5 47l-103 16q-108 -21 -157.5 -57.5t-49.5 -93.5q0 -62 69.5 -96t199.5 -34
q121 0 189.5 35z" />
    <glyph glyph-name="nine" unicode="9" horiz-adv-x="835" 
d="M604.5 673q84.5 -42 129 -122t44.5 -191q0 -117 -43 -202.5t-127 -131.5t-202 -46q-90 0 -162.5 25t-119 72t-59.5 110l101 22q22 -79 81.5 -113t159.5 -34q133 0 204 77t71 219l-1 10v20q-35 -59 -114 -97.5t-191 -38.5q-151 0 -235.5 58t-84.5 171q0 70 42.5 123
t121 82t181.5 29q119 0 203.5 -42zM571 373.5q71 40.5 92 110.5q-27 73 -92.5 111.5t-169.5 38.5q-115 0 -179.5 -39.5t-64.5 -112.5q0 -76 60.5 -112.5t174.5 -36.5q108 0 179 40.5z" />
    <glyph glyph-name="zero.zero" horiz-adv-x="876" 
d="M639.5 672.5q86.5 -46.5 133 -130t46.5 -191.5q0 -109 -46.5 -194t-133 -133t-201.5 -48t-201 48t-133 133t-47 194q0 108 47 191.5t133 130t201 46.5t201.5 -46.5zM288.5 602.5q-63.5 -35.5 -97 -100t-33.5 -151.5q0 -98 41 -168l448 373q-37 40 -90 61t-119 21
q-86 0 -149.5 -35.5zM587.5 93.5q63.5 36.5 97 103t33.5 154.5q0 82 -31 147l-445 -370q76 -71 196 -71q86 0 149.5 36.5z" />
    <glyph glyph-name="asterisk" unicode="*" horiz-adv-x="388" 
d="M233 552l92 -96l-65 -48l-66 119l-66 -119l-65 48l92 96l-127 24l26 77l117 -57l-18 128h82l-18 -127l117 56l26 -77z" />
    <glyph glyph-name="asciitilde" unicode="~" 
d="M444.5 246q-28.5 12 -62.5 34q-28 18 -46.5 26.5t-39.5 8.5q-36 0 -58 -18t-32 -55l-71 8q10 64 54 96.5t104 32.5q39 0 68 -12t64 -34q27 -17 46.5 -26t41.5 -9q33 0 54.5 20t33.5 62l66 -12q-14 -68 -57 -101t-99 -33q-38 0 -66.5 12z" />
    <glyph glyph-name="brokenbar" unicode="&#xa6;" horiz-adv-x="297" 
d="M186 382h-75v378h75v-378zM186 -117h-75v378h75v-378z" />
    <glyph glyph-name="backslash" unicode="\" horiz-adv-x="657" 
d="M45 760h102l465 -877h-102z" />
    <glyph glyph-name="underscore" unicode="_" horiz-adv-x="650" 
d="M650 -90v-69h-650v69h650z" />
    <glyph glyph-name="quotesingle" unicode="'" horiz-adv-x="294" 
d="M94 710h105l-19 -260h-66z" />
    <glyph glyph-name="quotedbl" unicode="&#x22;" horiz-adv-x="471" 
d="M271 710h105l-19 -260h-66zM94 710h105l-19 -260h-66z" />
    <glyph glyph-name="ampersand" unicode="&#x26;" horiz-adv-x="878" 
d="M863 78v-84q-33 -12 -76 -12q-48 0 -97.5 21.5t-93.5 54.5q-59 -40 -130 -61t-151 -21q-94 0 -161 28t-100.5 74.5t-33.5 102.5q0 71 46 117t133 80l12 5q-58 51 -84 91t-26 90t27.5 89t77 60.5t111.5 21.5q102 0 161.5 -44.5t59.5 -119.5q0 -65 -43.5 -116t-108.5 -78
l-24 -10l239 -198q90 95 111 242l90 -12q-9 -81 -43.5 -154t-91.5 -129q35 -24 67 -35.5t72 -11.5q33 0 57 9zM207 521.5q7 -19.5 28 -43.5t64 -60l29 12q52 20 82.5 56t30.5 84q0 45 -31 70t-94 25q-56 0 -86 -25t-30 -73q0 -26 7 -45.5zM178.5 92q58.5 -36 143.5 -36
q116 0 208 56l-257 218l-20 -8q-69 -29 -101 -59.5t-32 -73.5q0 -61 58.5 -97z" />
    <glyph glyph-name="at" unicode="@" horiz-adv-x="1052" 
d="M243.5 -65q-104.5 45 -159 132t-54.5 209q0 116 62 205t175 138t259 49q148 0 260.5 -46.5t174 -131t61.5 -194.5q0 -104 -50 -165t-135 -61q-56 0 -92.5 23t-48.5 67q-37 -49 -101 -75t-150 -26q-55 0 -98 16t-67 44.5t-24 65.5q0 62 44 92.5t146 37.5l242 16v4
q0 57 -41 84.5t-127 27.5q-68 0 -108.5 -22.5t-43.5 -61.5h-94q1 42 35 77t91 55t125 20q121 0 183.5 -45.5t62.5 -133.5v-115q0 -44 19 -64t61 -20q46 0 72 41.5t26 115.5q0 95 -51 165t-146 107.5t-223 37.5q-129 0 -225 -40t-147.5 -114t-51.5 -174q0 -155 103.5 -238
t296.5 -83q64 0 139 13t120 31l28 -58q-50 -24 -129 -37.5t-167 -13.5q-148 0 -252.5 45zM580 141q49 17 78.5 45.5t29.5 61.5v26l-238 -16q-58 -4 -80.5 -19t-22.5 -48q0 -31 34 -49t93 -18q57 0 106 17z" />
    <glyph glyph-name="copyright" unicode="&#xa9;" horiz-adv-x="949" 
d="M240.5 21q-100.5 45 -155.5 130.5t-55 203.5t55 203.5t155.5 130.5t234.5 45t234.5 -45t155 -130.5t54.5 -203.5t-54.5 -203.5t-155 -130.5t-234.5 -45t-234.5 45zM678 64q88 40 137 115t49 176t-49 176t-137 115t-203 40q-116 0 -204 -40t-136.5 -115t-48.5 -176
t48.5 -176t136.5 -115t204 -40q115 0 203 40zM349.5 168q-58.5 26 -90 74t-31.5 112q0 65 31.5 113.5t89.5 74.5t137 26q97 0 160.5 -37t71.5 -96l-79 -11q-8 37 -49.5 60t-104.5 23q-80 0 -128 -41.5t-48 -111.5q0 -68 48 -109t129 -41q60 0 101.5 22.5t53.5 57.5l80 -8
q-15 -59 -79.5 -96.5t-154.5 -37.5q-79 0 -137.5 26z" />
    <glyph glyph-name="registered" unicode="&#xae;" horiz-adv-x="949" 
d="M709.5 689q100.5 -45 155 -130.5t54.5 -203.5t-54.5 -203.5t-155 -130.5t-234.5 -45t-234.5 45t-155.5 130.5t-55 203.5t55 203.5t155.5 130.5t234.5 45t234.5 -45zM678 64q88 40 137 115t49 176t-49 176t-137 115t-203 40q-116 0 -204 -40t-136.5 -115t-48.5 -176
t48.5 -176t136.5 -115t204 -40q115 0 203 40zM684.5 364q-27.5 -31 -77.5 -43l120 -165h-90l-110 160h-163v-160h-77v406h266q78 0 118.5 -31.5t40.5 -90.5q0 -45 -27.5 -76zM364 373h179q47 0 69 16.5t22 50.5q0 33 -21.5 48.5t-69.5 15.5h-179v-131z" />
    <glyph glyph-name="trademark" unicode="&#x2122;" horiz-adv-x="1123" 
d="M198 659h-193v60h466v-60h-201v-346h-72v346zM515 719h107l126 -265q24 -51 37 -89h2q13 38 37 89l126 265h107v-406h-67v274q0 46 3 74h-2q-14 -33 -30 -66l-138 -282h-74l-138 282q-22 47 -30 66h-2q3 -28 3 -74v-274h-67v406z" />
    <glyph glyph-name="paragraph" unicode="&#xb6;" horiz-adv-x="944" 
d="M158.5 400.5q-79.5 43.5 -79.5 136.5q0 90 82 136.5t246 46.5h445v-64h-138v-756h-77v756h-160v-756h-77v457q-162 0 -241.5 43.5z" />
    <glyph glyph-name="section" unicode="&#xa7;" horiz-adv-x="728" 
d="M653 60q0 -91 -78.5 -138.5t-229.5 -47.5q-129 0 -206 37t-104 116l84 22q20 -52 76.5 -76.5t158.5 -24.5q103 0 153.5 25t50.5 76q0 40 -23 60.5t-76 29.5l-209 32q-78 12 -123 29.5t-65.5 46t-20.5 74.5q0 74 71 115q-27 17 -39 43t-12 64q0 82 76.5 127t214.5 45
q118 0 193.5 -34.5t101.5 -101.5l-85 -27q-25 47 -76.5 68t-141.5 21q-189 0 -189 -92q0 -36 24 -52.5t88 -26.5l216 -31q97 -14 143.5 -52.5t46.5 -104.5q0 -76 -63 -118q43 -39 43 -104zM480 215q30 -4 62 -14q37 25 37 68q0 42 -27 63t-93 32l-216 32q-42 7 -48 9
q-61 -24 -61 -78q0 -34 30 -51.5t111 -30.5z" />
    <glyph glyph-name="asciicircum" unicode="^" horiz-adv-x="584" 
d="M329 709l235 -279h-95l-177 211l-178 -211h-94l235 279h74z" />
    <glyph glyph-name="dagger" unicode="&#x2020;" horiz-adv-x="670" 
d="M379 -97h-89v524h-223v73h223v220h89v-220h224v-73h-224v-524z" />
    <glyph glyph-name="daggerdbl" unicode="&#x2021;" horiz-adv-x="670" 
d="M379 427v-232h224v-73h-224v-219h-89v219h-223v73h223v232h-223v73h223v220h89v-220h224v-73h-224z" />
    <glyph glyph-name="emptyset" unicode="&#x2205;" horiz-adv-x="707" 
d="M599 454q59 -61 59 -150q0 -71 -37 -124t-106 -82.5t-161 -29.5q-117 0 -197 47l-75 -58l-43 42l70 54q-60 60 -60 150q0 71 37 124t106 82.5t162 29.5q116 0 196 -47l75 58l44 -42zM172 202l313 240q-52 26 -131 26q-105 0 -162.5 -44t-57.5 -120q0 -62 38 -102z
M536 406l-313 -241q55 -26 131 -26q104 0 162 44.5t58 119.5q0 62 -38 103z" />
    <glyph glyph-name="uni2126" unicode="&#x2126;" horiz-adv-x="965" 
d="M550 0l-16 215q129 11 198.5 65t69.5 143q0 104 -83 160t-237 56t-236.5 -56t-82.5 -160q0 -89 69.5 -143t198.5 -65l-16 -215h-331v85h250l7 73q-132 22 -204 91.5t-72 175.5q0 90 51 156.5t145 102t221 35.5q128 0 222 -35.5t145 -102t51 -156.5q0 -106 -72.5 -175.5
t-204.5 -91.5l7 -73h250v-85h-330z" />
    <glyph glyph-name="uni2206" unicode="&#x2206;" horiz-adv-x="929" 
d="M412 697h108l374 -697h-859zM180 82h565l-280 524z" />
    <glyph glyph-name="uni00B5" unicode="&#xb5;" horiz-adv-x="873" 
d="M767 500v-500h-95v136q-33 -76 -107 -115.5t-176 -39.5q-129 0 -198 53v-229h-85v695h95v-247q0 -110 60 -151.5t147 -41.5q91 0 150 34t86 84.5t27 101.5v220h96z" />
    <glyph glyph-name="uniF8FF" unicode="&#xf8ff;" horiz-adv-x="1018" 
d="M446 663v-47h552v-48h-552v-47h552v-48h-552v-47h552v-47h-552v-48h552v-47h-978v426h978v-47h-552zM80 676h-16l-5 15l-4 -15h-16l13 -9l-5 -15l12 9l13 -9l-5 15zM126 676l13 -9l-5 -15l12 10l13 -10l-5 15l12 9h-15l-5 15l-4 -15h-16zM213 676l13 -9l-5 -15l12 10
l13 -10l-5 15l12 9h-15l-5 15l-4 -15h-16zM300 676l13 -9l-5 -15l12 10l13 -10l-5 15l12 9h-15l-5 15l-5 -15h-15zM427 676h-15l-5 15l-5 -15h-15l12 -9l-4 -15l12 10l13 -10l-5 15zM83 632l12 -9l-4 -14l12 9l12 -9l-4 14l12 9h-15l-5 15l-5 -15h-15zM384 632h-16l-4 15
l-5 -15h-15l12 -9l-5 -14l13 9l12 -9l-5 14zM273 457h94v80h-94v94h-80v-94h-93v-80h93v-93h80v93zM80 589h-16l-5 14l-4 -14h-16l13 -9l-5 -15l12 9l13 -9l-5 15zM126 589l13 -9l-5 -15l12 9l13 -9l-5 15l12 9h-15l-5 14l-4 -14h-16zM300 589l13 -9l-5 -15l12 9l13 -9
l-5 15l12 9h-15l-5 14l-5 -14h-15zM427 589h-15l-5 14l-5 -14h-15l12 -9l-4 -15l12 9l13 -9l-5 15zM80 502h-16l-5 14l-4 -14h-16l13 -10l-5 -14l12 9l13 -9l-5 14zM427 502h-15l-5 14l-5 -14h-15l12 -10l-4 -14l12 9l13 -9l-5 14zM80 414h-16l-5 15l-4 -15h-16l13 -9
l-5 -14l12 9l13 -9l-5 14zM166 414h-15l-5 15l-4 -15h-16l13 -9l-5 -14l12 9l13 -9l-5 14zM340 414h-15l-5 15l-5 -15h-15l13 -9l-5 -14l12 9l13 -9l-5 14zM427 414h-15l-5 15l-5 -15h-15l12 -9l-4 -14l12 9l13 -9l-5 14zM111 362l12 9h-15l-5 14l-5 -14h-15l12 -9l-4 -15
l12 9l12 -9zM371 362l13 9h-16l-4 14l-5 -14h-15l12 -9l-5 -15l13 9l12 -9zM67 318l13 9h-16l-5 15l-4 -15h-16l13 -9l-5 -15l12 9l13 -9zM154 318l12 9h-15l-5 15l-4 -15h-16l13 -9l-5 -15l12 9l13 -9zM241 318l12 9h-15l-5 15l-4 -15h-16l13 -9l-5 -15l12 9l13 -9z
M328 318l12 9h-15l-5 15l-5 -15h-15l13 -9l-5 -15l12 9l13 -9zM415 318l12 9h-15l-5 15l-5 -15h-15l12 -9l-4 -15l12 9l13 -9zM20 237h977v-48h-977v48zM20 142h978v-47h-978v47zM20 47h978v-47h-978v47z" />
    <glyph glyph-name="uni2113" unicode="&#x2113;" horiz-adv-x="573" 
d="M247.5 101.5q32.5 -26.5 105.5 -26.5q50 0 116 7v-82q-65 -10 -130 -10q-123 0 -170.5 50t-47.5 145v6q-48 -16 -124 -35l-31 70q93 26 155 46v260q0 104 57 153t140 49q97 0 146 -52t49 -141q0 -105 -76 -182t-222 -135v-36q0 -60 32.5 -86.5zM215 306q100 41 152.5 96
t52.5 137q0 63 -26.5 93.5t-77.5 30.5q-47 0 -74 -30t-27 -84v-243z" />
    <glyph glyph-name="estimated" unicode="&#x212e;" horiz-adv-x="926" 
d="M204 356v-234q55 -45 130 -64t152 -19q114 0 195.5 34t147.5 108l47 -38q-68 -85 -165.5 -124t-224.5 -39q-126 0 -229 39.5t-165 123t-62 208.5q0 119 61 203.5t163.5 127t225.5 42.5q126 0 220 -41t145 -115t51 -172v-40h-692zM616.5 652q-69.5 17 -141.5 17
q-71 0 -144 -20t-127 -65v-170h530v178q-48 43 -117.5 60z" />
    <glyph glyph-name="dollar" unicode="$" horiz-adv-x="879" 
d="M761 323.5q63 -48.5 63 -139.5q0 -99 -92 -151.5t-267 -52.5h-1v-81h-61v83q-155 8 -246 61.5t-122 154.5l105 22q45 -139 263 -156v249l-87 7q-124 12 -185.5 59t-61.5 133q0 93 87 146.5t247 56.5v81h61v-82q150 -5 231.5 -51t116.5 -143l-100 -29q-26 71 -83 104.5
t-165 38.5v-239l102 -9q132 -14 195 -62.5zM403 401v234q-119 -2 -173.5 -30t-54.5 -89q0 -50 45 -76t145 -36zM658.5 91q59.5 29 59.5 92q0 53 -44.5 81.5t-140.5 37.5l-69 6v-246h3q132 0 191.5 29z" />
    <glyph glyph-name="cent" unicode="&#xa2;" horiz-adv-x="792" 
d="M578.5 90q51.5 29 76.5 87l96 -15q-25 -78 -105.5 -125t-200.5 -55v-82h-62v81q-104 3 -181.5 37t-120 94t-42.5 138q0 79 42 138.5t120 93.5t182 37v72h62v-73q254 -12 308 -187l-101 -14q-37 115 -207 127v-388q82 5 133.5 34zM203 111.5q65 -51.5 180 -56.5v390
q-117 -5 -181 -55t-64 -140q0 -87 65 -138.5z" />
    <glyph glyph-name="sterling" unicode="&#xa3;" horiz-adv-x="838" 
d="M820 156q-15 -82 -77.5 -129t-158.5 -47q-34 0 -71.5 3t-73.5 7q-110 12 -192 12q-102 0 -207 -19l-21 66q163 45 163 180q0 50 -14 99h-123v66h104q-12 45 -12 90q0 109 83.5 170t231.5 61q125 0 204.5 -43t106.5 -126l-98 -26q-20 56 -74.5 85t-139.5 29
q-106 0 -158 -36.5t-52 -110.5q0 -47 12 -93h305v-66h-285q11 -44 11 -81q0 -64 -29 -106.5t-91 -69.5q28 6 65.5 9t67.5 3q61 0 147 -8q84 -8 136 -8q62 0 100 27t48 79z" />
    <glyph glyph-name="florin" unicode="&#x192;" horiz-adv-x="626" 
d="M401.5 604.5q-36.5 -30.5 -49.5 -107.5l-12 -69h245v-72h-258l-88 -506h-100l90 506h-193v72h206l11 63q16 87 49 136.5t84 69.5t127 20q51 0 95 -14l-1 -84q-48 16 -98 16q-71 0 -107.5 -30.5z" />
    <glyph glyph-name="yen" unicode="&#xa5;" horiz-adv-x="870" 
d="M496 292h275v-61h-287v-68h287v-61h-287v-102h-98v102h-287v61h287v68h-287v61h275l-375 403h122l214 -233q57 -60 99 -118h3q42 58 99 118l214 233h121z" />
    <glyph glyph-name="Euro" unicode="&#x20ac;" horiz-adv-x="954" 
d="M828 197l86 -42q-55 -81 -152 -128t-225 -47q-180 0 -286 76.5t-138 198.5h-107v61h96q-2 26 -2 40t2 40h-96v60h108q34 116 144.5 187.5t288.5 71.5q127 0 222 -43t147 -116l-95 -47q-45 60 -113 90t-167 30q-131 0 -211 -46t-110 -127h453v-60h-467q-2 -26 -2 -39
q0 -15 2 -41h467v-61h-453q30 -88 111.5 -138.5t208.5 -50.5q190 0 288 131z" />
    <glyph glyph-name="currency" unicode="&#xa4;" horiz-adv-x="711" 
d="M608 157l64 -56l-47 -44l-68 58q-80 -47 -197 -47q-122 0 -202 50l-72 -61l-47 43l69 60q-53 58 -53 143q0 83 53 144l-69 60l47 43l73 -61q81 49 201 49q116 0 195 -46l70 59l48 -43l-67 -57q57 -60 57 -148q0 -86 -55 -146zM198 186q58 -43 162 -43t161.5 43t57.5 117
t-57.5 117t-161.5 43t-162 -43t-58 -117t58 -117z" />
    <glyph glyph-name="fraction" unicode="&#x2044;" horiz-adv-x="220" 
d="M356 727h98l-590 -744h-98z" />
    <glyph glyph-name="onequarter" unicode="&#xbc;" horiz-adv-x="1025" 
d="M158 612q-18 -23 -48 -34.5t-61 -11.5h-22v69h13q47 0 83 20t48 56h71v-389h-84v290zM687 727h98l-590 -744h-98zM897 90v-90h-83v90h-307v52l301 247h89v-244h109v-55h-109zM586 145h228v185z" />
    <glyph glyph-name="onehalf" unicode="&#xbd;" horiz-adv-x="1062" 
d="M158 612q-18 -23 -48 -34.5t-61 -11.5h-22v69h13q47 0 83 20t48 56h71v-389h-84v290zM687 727h98l-590 -744h-98zM590 52l20 9q113 48 173 78t97 63t37 70q0 32 -31.5 52t-85.5 20q-51 0 -86.5 -17.5t-35.5 -59.5q0 -10 1 -16l-84 6q-2 12 -2 18q0 64 59 95.5t147 31.5
q93 0 149 -29t56 -92q0 -68 -77.5 -120t-203.5 -102h292v-59h-425v52z" />
    <glyph glyph-name="threequarters" unicode="&#xbe;" horiz-adv-x="1214" 
d="M98 345q-58 37 -60 100l84 5q1 -40 36.5 -62t96.5 -22q59 0 96.5 16.5t37.5 51.5q0 30 -29 44t-104 14h-46v56h46q124 0 124 56q0 31 -35 47t-90 16q-62 0 -96 -21t-35 -63l-84 4q2 64 59 100.5t157 36.5q94 0 152 -28t58 -85q0 -42 -33 -62.5t-84 -24.5q128 -11 128 -91
q0 -61 -62 -93t-160 -32q-99 0 -157 37zM875 727h98l-590 -744h-98zM1085 90v-90h-83v90h-307v52l301 247h89v-244h109v-55h-109zM774 145h228v185z" />
    <glyph glyph-name="uni2153" unicode="&#x2153;" horiz-adv-x="1070" 
d="M158 612q-18 -23 -48 -34.5t-61 -11.5h-22v69h13q47 0 83 20t48 56h71v-389h-84v290zM687 727h98l-590 -744h-98zM649 23q-58 37 -60 100l84 5q1 -40 36.5 -62t96.5 -22q59 0 96.5 16.5t37.5 51.5q0 30 -29 44t-104 14h-46v56h46q124 0 124 56q0 31 -35 47t-90 16
q-62 0 -96 -21t-35 -63l-84 4q2 64 59 100.5t157 36.5q94 0 152 -28t58 -85q0 -42 -33 -62.5t-84 -24.5q128 -11 128 -91q0 -61 -62 -93t-160 -32q-99 0 -157 37z" />
    <glyph glyph-name="uni2154" unicode="&#x2154;" horiz-adv-x="1250" 
d="M39 374l20 9q113 48 173 78t97 63t37 70q0 32 -31.5 52t-85.5 20q-51 0 -86.5 -17.5t-35.5 -59.5q0 -10 1 -16l-84 6q-2 12 -2 18q0 64 59 95.5t147 31.5q93 0 149 -29t56 -92q0 -68 -77.5 -120t-203.5 -102h292v-59h-425v52zM867 727h98l-590 -744h-98zM829 23
q-58 37 -60 100l84 5q1 -40 36.5 -62t96.5 -22q59 0 96.5 16.5t37.5 51.5q0 30 -29 44t-104 14h-46v56h46q124 0 124 56q0 31 -35 47t-90 16q-62 0 -96 -21t-35 -63l-84 4q2 64 59 100.5t157 36.5q94 0 152 -28t58 -85q0 -42 -33 -62.5t-84 -24.5q128 -11 128 -91
q0 -61 -62 -93t-160 -32q-99 0 -157 37z" />
    <glyph glyph-name="oneeighth" unicode="&#x215b;" horiz-adv-x="1074" 
d="M158 612q-18 -23 -48 -34.5t-61 -11.5h-22v69h13q47 0 83 20t48 56h71v-389h-84v290zM687 727h98l-590 -744h-98zM1007 172q28 -27 28 -70q0 -55 -59 -85.5t-165 -30.5q-102 0 -161.5 30t-59.5 81q0 77 116 97q-103 25 -103 98q0 51 56 80.5t152 29.5q98 0 155 -27.5
t57 -76.5q0 -36 -27 -56.5t-84 -28.5q67 -14 95 -41zM711.5 251q23.5 -15 77.5 -22l59 -7q51 9 70.5 23.5t19.5 41.5q0 31 -34 48.5t-93 17.5q-56 0 -89.5 -17.5t-33.5 -44.5q0 -25 23.5 -40zM911 56q37 19 37 51q0 27 -23.5 43t-82.5 25l-68 8q-50 -9 -73.5 -26.5
t-23.5 -45.5q0 -34 36 -54t98 -20q63 0 100 19z" />
    <glyph glyph-name="threeeighths" unicode="&#x215c;" horiz-adv-x="1262" 
d="M98 345q-58 37 -60 100l84 5q1 -40 36.5 -62t96.5 -22q59 0 96.5 16.5t37.5 51.5q0 30 -29 44t-104 14h-46v56h46q124 0 124 56q0 31 -35 47t-90 16q-62 0 -96 -21t-35 -63l-84 4q2 64 59 100.5t157 36.5q94 0 152 -28t58 -85q0 -42 -33 -62.5t-84 -24.5q128 -11 128 -91
q0 -61 -62 -93t-160 -32q-99 0 -157 37zM875 727h98l-590 -744h-98zM1195 172q28 -27 28 -70q0 -55 -59 -85.5t-165 -30.5q-102 0 -161.5 30t-59.5 81q0 77 116 97q-103 25 -103 98q0 51 56 80.5t152 29.5q98 0 155 -27.5t57 -76.5q0 -36 -27 -56.5t-84 -28.5q67 -14 95 -41
zM899.5 251q23.5 -15 77.5 -22l59 -7q51 9 70.5 23.5t19.5 41.5q0 31 -34 48.5t-93 17.5q-56 0 -89.5 -17.5t-33.5 -44.5q0 -25 23.5 -40zM1099 56q37 19 37 51q0 27 -23.5 43t-82.5 25l-68 8q-50 -9 -73.5 -26.5t-23.5 -45.5q0 -34 36 -54t98 -20q63 0 100 19z" />
    <glyph glyph-name="fiveeighths" unicode="&#x215d;" horiz-adv-x="1239" 
d="M103.5 339q-55.5 31 -63.5 83l80 7q7 -31 41 -48t86 -17q59 0 93 23t34 62t-32.5 60.5t-93.5 21.5q-43 0 -79.5 -16t-44.5 -37l-73 6l25 227h355v-54h-291l-14 -129q20 26 59.5 40t90.5 14q86 0 134.5 -36t48.5 -97q0 -63 -58.5 -102t-156.5 -39q-85 0 -140.5 31z
M851 727h98l-590 -744h-98zM1172 172q28 -27 28 -70q0 -55 -59 -85.5t-165 -30.5q-102 0 -161.5 30t-59.5 81q0 77 116 97q-103 25 -103 98q0 51 56 80.5t152 29.5q98 0 155 -27.5t57 -76.5q0 -36 -27 -56.5t-84 -28.5q67 -14 95 -41zM876.5 251q23.5 -15 77.5 -22l59 -7
q51 9 70.5 23.5t19.5 41.5q0 31 -34 48.5t-93 17.5q-56 0 -89.5 -17.5t-33.5 -44.5q0 -25 23.5 -40zM1076 56q37 19 37 51q0 27 -23.5 43t-82.5 25l-68 8q-50 -9 -73.5 -26.5t-23.5 -45.5q0 -34 36 -54t98 -20q63 0 100 19z" />
    <glyph glyph-name="seveneighths" unicode="&#x215e;" horiz-adv-x="1138" 
d="M17 711h413v-61q-86 -55 -138.5 -142.5t-52.5 -184.5v-1h-88v2q-1 95 52 180.5t150 145.5h-336v61zM751 727h98l-590 -744h-98zM1071 172q28 -27 28 -70q0 -55 -59 -85.5t-165 -30.5q-102 0 -161.5 30t-59.5 81q0 77 116 97q-103 25 -103 98q0 51 56 80.5t152 29.5
q98 0 155 -27.5t57 -76.5q0 -36 -27 -56.5t-84 -28.5q67 -14 95 -41zM775.5 251q23.5 -15 77.5 -22l59 -7q51 9 70.5 23.5t19.5 41.5q0 31 -34 48.5t-93 17.5q-56 0 -89.5 -17.5t-33.5 -44.5q0 -25 23.5 -40zM975 56q37 19 37 51q0 27 -23.5 43t-82.5 25l-68 8
q-50 -9 -73.5 -26.5t-23.5 -45.5q0 -34 36 -54t98 -20q63 0 100 19z" />
    <glyph glyph-name="percent" unicode="%" horiz-adv-x="1049" 
d="M781 718h98l-617 -740h-97zM133.5 374.5q-50.5 22.5 -78 64t-27.5 96.5q0 53 27.5 94.5t78 64t115.5 22.5q64 0 114 -23t78 -64.5t28 -95.5t-28 -95t-77.5 -63.5t-113.5 -22.5q-66 0 -116.5 22.5zM349.5 450.5q37.5 30.5 37.5 82.5t-38 83.5t-100 31.5q-64 0 -102.5 -31
t-38.5 -82q0 -53 38.5 -84t103.5 -31q62 0 99.5 30.5zM684.5 4q-50.5 23 -78 64.5t-27.5 96.5q0 53 27.5 94t78 63.5t115.5 22.5q64 0 114 -23t78 -64.5t28 -95.5q0 -53 -28 -94.5t-78 -64t-113 -22.5q-66 0 -116.5 23zM900.5 79.5q37.5 30.5 37.5 82.5t-38 83.5t-100 31.5
q-64 0 -102.5 -30.5t-38.5 -81.5q0 -54 38.5 -85t103.5 -31q62 0 99.5 30.5z" />
    <glyph glyph-name="perthousand" unicode="&#x2030;" horiz-adv-x="1536" 
d="M781 718h98l-617 -740h-97zM133.5 374.5q-50.5 22.5 -78 64t-27.5 96.5q0 53 27.5 94.5t78 64t115.5 22.5q64 0 114 -23t78 -64.5t28 -95.5t-28 -95t-77.5 -63.5t-113.5 -22.5q-66 0 -116.5 22.5zM349.5 450.5q37.5 30.5 37.5 82.5t-38 83.5t-100 31.5q-64 0 -102.5 -31
t-38.5 -82q0 -53 38.5 -84t103.5 -31q62 0 99.5 30.5zM684.5 4q-50.5 23 -78 64.5t-27.5 96.5q0 53 27.5 94t78 63.5t115.5 22.5q64 0 114 -23t78 -64.5t28 -95.5q0 -53 -28 -94.5t-78 -64t-113 -22.5q-66 0 -116.5 23zM1172 4q-50 23 -77.5 64.5t-27.5 96.5q0 53 27.5 94
t77.5 63.5t115 22.5q64 0 114.5 -23t78.5 -64.5t28 -95.5q0 -53 -28 -94.5t-78 -64t-114 -22.5q-66 0 -116 23zM900.5 79.5q37.5 30.5 37.5 82.5t-38 83.5t-100 31.5q-64 0 -102.5 -30.5t-38.5 -81.5q0 -54 38.5 -85t103.5 -31q62 0 99.5 30.5zM1388 79.5q38 30.5 38 82.5
t-38 83.5t-101 31.5t-101.5 -30.5t-38.5 -81.5q0 -54 38.5 -85t102.5 -31q62 0 100 30.5z" />
    <glyph glyph-name="uni03BC" unicode="&#x3bc;" horiz-adv-x="873" 
d="M767 500v-500h-95v136q-33 -76 -107 -115.5t-176 -39.5q-129 0 -198 53v-229h-85v695h95v-247q0 -110 60 -151.5t147 -41.5q91 0 150 34t86 84.5t27 101.5v220h96z" />
    <glyph glyph-name="numbersign" unicode="#" horiz-adv-x="836" 
d="M637 427l-31 -159h177v-66h-191l-40 -202h-84l41 202h-245l-40 -202h-84l41 202h-162v66h175l32 159h-167v66h180l41 202h83l-40 -202h244l41 202h83l-40 -202h166v-66h-180zM554 427h-245l-31 -159h244z" />
    <glyph glyph-name="uni2116" unicode="&#x2116;" horiz-adv-x="1643" 
d="M116 710h128l513 -532q37 -37 49 -66h2v86v512h95v-710h-112l-529 546q-33 34 -47 63h-3v-79v-530h-96v710zM1099 229.5q-69 29.5 -105.5 80t-36.5 113.5t36.5 113.5t105.5 80t163 29.5t163 -29.5t105.5 -80t36.5 -113.5t-36.5 -113.5t-105.5 -80t-163 -29.5t-163 29.5z
M1418.5 311q56.5 42 56.5 112q0 69 -56.5 111.5t-156.5 42.5t-156.5 -42.5t-56.5 -111.5q0 -70 56.5 -112t156.5 -42t156.5 42zM958 78h608v-78h-608v78z" />
    <glyph glyph-name="uni0394" unicode="&#x394;" horiz-adv-x="929" 
d="M412 697h108l374 -697h-859zM180 82h565l-280 524z" />
    <glyph glyph-name="uni03A9" unicode="&#x3a9;" horiz-adv-x="965" 
d="M550 0l-16 215q129 11 198.5 65t69.5 143q0 104 -83 160t-237 56t-236.5 -56t-82.5 -160q0 -89 69.5 -143t198.5 -65l-16 -215h-331v85h250l7 73q-132 22 -204 91.5t-72 175.5q0 90 51 156.5t145 102t221 35.5q128 0 222 -35.5t145 -102t51 -156.5q0 -106 -72.5 -175.5
t-204.5 -91.5l7 -73h250v-85h-330z" />
    <glyph glyph-name="pi" unicode="&#x3c0;" horiz-adv-x="893" 
d="M791 -7q-86 0 -117 34t-31 93v307h-391v-427h-96v427h-126v73h833v-73h-125v-299q0 -32 17.5 -46t52.5 -14q21 0 54 5v-74q-30 -6 -71 -6z" />
    <glyph glyph-name="plus" unicode="+" horiz-adv-x="683" 
d="M625 291h-239v-202h-90v202h-238v77h238v190h90v-190h239v-77z" />
    <glyph glyph-name="minus" unicode="&#x2212;" horiz-adv-x="683" 
d="M58 370h567v-84h-567v84z" />
    <glyph glyph-name="plusminus" unicode="&#xb1;" 
d="M685 369v-77h-239v-159h-90v159h-238v77h238v161h90v-161h239zM118 83h567v-83h-567v83z" />
    <glyph glyph-name="multiply" unicode="&#xd7;" 
d="M463 327l219 -187l-58 -56l-222 190l-223 -190l-58 56l219 187l-219 187l59 55l222 -189l221 189l59 -55z" />
    <glyph glyph-name="divide" unicode="&#xf7;" horiz-adv-x="683" 
d="M300.5 467.5q-15.5 15.5 -15.5 39.5q0 23 15.5 38.5t39.5 15.5q23 0 38.5 -15.5t15.5 -38.5q0 -24 -15.5 -39.5t-38.5 -15.5q-24 0 -39.5 15.5zM58 366h567v-80h-567v80zM300.5 106.5q-15.5 15.5 -15.5 38.5q0 24 15.5 39.5t39.5 15.5q23 0 38.5 -15.5t15.5 -39.5
q0 -23 -15.5 -38.5t-38.5 -15.5q-24 0 -39.5 15.5z" />
    <glyph glyph-name="equal" unicode="=" horiz-adv-x="681" 
d="M58 465h565v-82h-565v82zM58 275h565v-82h-565v82z" />
    <glyph glyph-name="less" unicode="&#x3c;" 
d="M105 288v76l557 205v-86l-456 -156l456 -157v-87z" />
    <glyph glyph-name="greater" unicode="&#x3e;" 
d="M141 170l456 157l-456 156v86l557 -205v-76l-557 -205v87z" />
    <glyph glyph-name="degree" unicode="&#xb0;" horiz-adv-x="495" 
d="M138.5 321q-48.5 26 -76.5 74t-28 111t28 111t76.5 74t108.5 26t109 -26t77 -74t28 -111t-28 -111t-77 -74t-109 -26t-108.5 26zM342.5 406.5q37.5 38.5 37.5 99.5t-37.5 99.5t-95.5 38.5q-57 0 -94.5 -38.5t-37.5 -99.5t37.5 -99.5t94.5 -38.5q58 0 95.5 38.5z" />
    <glyph glyph-name="approxequal" unicode="&#x2248;" 
d="M478 369q-30 7 -77 21q-44 14 -73.5 21t-59.5 7q-43 0 -83 -14t-66 -36v83q24 22 65 36t82 14q38 0 71 -7.5t77 -22.5q43 -13 69 -19.5t55 -6.5q42 0 81 13.5t65 35.5v-83q-23 -21 -63.5 -35t-80.5 -14q-32 0 -62 7zM478 174q-30 7 -77 21q-44 14 -73.5 21t-59.5 7
q-43 0 -83 -13.5t-66 -35.5v83q24 21 65 35t82 14q38 0 71 -7.5t77 -22.5q43 -13 69 -19.5t55 -6.5q42 0 81.5 14t64.5 36v-83q-23 -22 -63.5 -36t-80.5 -14q-32 0 -62 7z" />
    <glyph glyph-name="greaterequal" unicode="&#x2265;" 
d="M125 219l456 157l-456 156v86l557 -205v-76l-557 -205v87zM680 0h-556v78h556v-78z" />
    <glyph glyph-name="infinity" unicode="&#x221e;" horiz-adv-x="802" 
d="M690.5 434.5q45.5 -36.5 45.5 -105.5q0 -67 -46.5 -105.5t-114.5 -38.5q-51 0 -96.5 22.5t-80.5 62.5q-37 -40 -78 -62.5t-96 -22.5q-68 0 -113 36.5t-45 105.5q0 67 46.5 105.5t114.5 38.5q51 0 96.5 -22.5t80.5 -62.5q36 39 77.5 62t95.5 23q68 0 113.5 -36.5zM300 278
q28 18 55 50q-26 32 -56 50t-67 18t-61.5 -17.5t-24.5 -50.5t25.5 -50.5t62.5 -17.5q38 0 66 18zM630.5 277.5q24.5 17.5 24.5 50.5t-25 50.5t-62 17.5q-38 0 -66.5 -18t-55.5 -50q27 -32 57 -50t67 -18q36 0 60.5 17.5z" />
    <glyph glyph-name="lessequal" unicode="&#x2264;" 
d="M121 337v76l558 205v-86l-456 -156l456 -157v-87zM679 78v-78h-555v78h555z" />
    <glyph glyph-name="logicalnot" unicode="&#xac;" 
d="M679 375v-245h-84v162h-474v83h558z" />
    <glyph glyph-name="notequal" unicode="&#x2260;" 
d="M466 383l-61 -108h277v-82h-322l-73 -130h-65l73 130h-178v82h224l60 108h-284v82h330l71 126h64l-70 -126h170v-82h-216z" />
    <glyph glyph-name="integral" unicode="&#x222b;" horiz-adv-x="590" 
d="M28 -110v81q32 -5 70 -5q71 0 105.5 35.5t34.5 129.5v343q0 238 235 238q40 0 70 -5v-81q-31 6 -71 6q-69 0 -103 -36t-34 -130v-343q0 -121 -62 -179.5t-176 -58.5q-39 0 -69 5z" />
    <glyph glyph-name="partialdiff" unicode="&#x2202;" horiz-adv-x="781" 
d="M627 619.5q101 -101.5 101 -281.5q0 -106 -42 -186t-124 -124.5t-198 -44.5q-95 0 -167 30.5t-110.5 85.5t-38.5 126q0 68 36.5 120.5t106.5 82t168 29.5q86 0 157 -26t116 -77v3q0 132 -76.5 207t-223.5 75q-78 0 -154 -20l-25 76q81 26 179 26q194 0 295 -101.5z
M548.5 113q73.5 52 82.5 152q-38 57 -105 85.5t-159 28.5q-111 0 -167 -42t-56 -113q0 -73 60 -118t165 -45q106 0 179.5 52z" />
    <glyph glyph-name="product" unicode="&#x220f;" horiz-adv-x="945" 
d="M738 617h-531v-705h-96v793h724v-793h-97v705z" />
    <glyph glyph-name="radical" unicode="&#x221a;" horiz-adv-x="800" 
d="M221 308l120 -290l333 717h97l-383 -829h-89l-142 325h-131v77h195z" />
    <glyph glyph-name="summation" unicode="&#x2211;" horiz-adv-x="830" 
d="M50 -15l422 339l-409 309v72h701v-84h-548l396 -294l-424 -331h588v-84h-726v73z" />
    <glyph glyph-name="lozenge" unicode="&#x25ca;" horiz-adv-x="692" 
d="M302 -17l-278 372l278 372h85l281 -372l-281 -372h-85zM126 355l219 -298l222 298l-222 298z" />
    <glyph glyph-name="zero.tf" 
d="M210 25q-81 45 -124.5 128.5t-43.5 197.5q0 112 44 194t125 126t191 44t191 -44.5t124.5 -127t43.5 -192.5q0 -115 -43.5 -198.5t-124.5 -128t-191 -44.5q-111 0 -192 45zM595 133.5q67 78.5 67 217.5q0 135 -67.5 212t-192.5 77q-126 0 -193 -77t-68 -212
q1 -141 68.5 -218.5t192.5 -77.5q126 0 193 78.5z" />
    <glyph glyph-name="one.tf" 
d="M740 88v-88h-642v88h287v453q-29 -37 -92 -62.5t-153 -25.5h-34v88h21q101 0 170 42t99 112h86v-607h258z" />
    <glyph glyph-name="two.tf" 
d="M62 70q170 84 273.5 141.5t163.5 103.5q61 46 85.5 87t24.5 93q0 64 -53.5 104t-155.5 40q-95 0 -155.5 -41t-68.5 -117l-1 -13l1 -15l-98 14q0 22 1 33q8 66 53 115t116 74.5t155 25.5q102 0 170.5 -29t102 -78t33.5 -110q0 -56 -25 -105.5t-84 -100.5
q-57 -49 -149.5 -101t-232.5 -111h522v-80h-678v70z" />
    <glyph glyph-name="three.tf" 
d="M232 7.5q-75 27.5 -117.5 76t-50.5 110.5l95 11q15 -69 77 -109.5t174 -40.5q110 0 169.5 35t59.5 105q0 74 -59 103t-163 29h-70v68h66q90 0 145 31.5t55 92.5q0 56 -53 88.5t-162 32.5q-107 0 -164 -49t-61 -126l-97 16q0 56 36 109.5t109.5 89t179.5 35.5
q151 0 231.5 -53t80.5 -142q0 -44 -26 -77t-65 -51.5t-78 -23.5q81 -8 137.5 -51.5t56.5 -122.5q0 -97 -84.5 -155.5t-246.5 -58.5q-100 0 -175 27.5z" />
    <glyph glyph-name="four.tf" 
d="M521 179h-489v58l465 458h119v-442h154v-74h-154v-179h-95v179zM521 253v306q0 44 3 69h-3q-9 -17 -24.5 -33.5t-20.5 -22.5l-270 -270q-23 -25 -56 -49h371z" />
    <glyph glyph-name="five.tf" 
d="M179 30.5q-87 50.5 -108 137.5l96 9q15 -55 77.5 -87.5t162.5 -32.5q106 0 166 46.5t60 128.5q0 75 -53 122t-162 47q-82 0 -139 -27.5t-87 -74.5l-94 8l41 388h543v-77h-463l-26 -242q34 40 97.5 68t150.5 28t153 -29t102.5 -83.5t36.5 -127.5q0 -72 -40 -129.5
t-115.5 -90t-176.5 -32.5q-135 0 -222 50.5z" />
    <glyph glyph-name="six.tf" 
d="M661.5 415q80.5 -62 80.5 -181q0 -72 -39.5 -130t-111.5 -91t-166 -33q-114 0 -196 44.5t-125 128.5t-43 200q0 171 93.5 266.5t267.5 95.5q122 0 207.5 -50t103.5 -136l-100 -22q-21 64 -75 95.5t-135 31.5q-130 0 -198 -72.5t-67 -206.5v-8v-10q32 63 103.5 101.5
t177.5 38.5q142 0 222.5 -62zM541 83q49 22 75 61.5t26 89.5q0 82 -55.5 122t-159.5 40q-102 0 -167.5 -46t-83.5 -124q26 -81 89 -123t160 -42q67 0 116 22z" />
    <glyph glyph-name="seven.tf" 
d="M265 16q0 166 89.5 318.5t250.5 275.5h-535v85h663v-76q-349 -248 -349 -594v-25h-119v16z" />
    <glyph glyph-name="eight.tf" 
d="M706.5 306.5q48.5 -42.5 48.5 -117.5q0 -64 -41 -111t-119.5 -72.5t-186.5 -25.5q-173 0 -266.5 52t-93.5 148q0 68 47.5 113.5t137.5 64.5q-77 21 -119 61.5t-42 109.5q0 57 40.5 99t115.5 64.5t176 22.5q98 0 172 -23t114 -65t40 -98q0 -60 -41.5 -101t-117.5 -57
q87 -22 135.5 -64.5zM216.5 452q43.5 -28 127.5 -41l119 -19q90 27 128 58t38 77q0 32 -26.5 58.5t-77 42t-121.5 15.5q-72 0 -124.5 -14.5t-79.5 -40.5t-27 -58q0 -50 43.5 -78zM589.5 94q64.5 34 64.5 94q0 59 -51.5 88t-153.5 45l-103 15q-101 -21 -148 -57t-47 -93
q0 -60 66.5 -93t190.5 -33q117 0 181.5 34z" />
    <glyph glyph-name="nine.tf" 
d="M580.5 672.5q80.5 -42.5 123 -123.5t42.5 -193q0 -116 -40 -200.5t-117 -130t-186 -45.5q-87 0 -158 22.5t-117 64t-58 98.5l101 22q21 -68 78.5 -96.5t153.5 -28.5q119 0 182 76t63 216v10v17q-33 -58 -106.5 -96t-177.5 -38q-142 0 -222.5 59t-80.5 171q0 71 41 125
t115 83.5t171 29.5q112 0 192.5 -42.5zM547 370q66 42 84 112q-25 73 -86 112.5t-157 39.5q-106 0 -166.5 -41t-60.5 -116t57 -112t161 -37q102 0 168 42z" />
    <glyph glyph-name="zero.tf.zero" 
d="M593 670.5q81 -44.5 124.5 -127t43.5 -192.5q0 -115 -43.5 -198.5t-124.5 -128t-191 -44.5q-111 0 -192 45t-124.5 128.5t-43.5 197.5q0 112 44 194t125 126t191 44t191 -44.5zM209 563q-67 -77 -68 -212q0 -89 29 -156l430 361q-68 84 -198 84q-126 0 -193 -77z
M595 133.5q67 78.5 67 217.5q0 82 -26 145l-430 -359q68 -82 196 -82q126 0 193 78.5z" />
    <glyph glyph-name="dollar.tf" 
d="M448 -20v-81h-60v82q-146 8 -236 62.5t-118 155.5l104 22q42 -140 250 -156v251l-78 11q-122 17 -178.5 65.5t-56.5 133.5q0 88 79.5 136.5t233.5 52.5v81h60v-82q129 -4 201 -45.5t101 -124.5l-100 -29q-21 58 -68 86t-134 33v-237l94 -14q120 -18 174 -65t54 -135
q0 -201 -322 -203zM388 406v229q-108 -1 -157.5 -27t-49.5 -81q0 -34 16 -55.5t52 -35.5t101 -24zM615 90.5q50 28.5 50 91.5q0 52 -33.5 78t-112.5 37l-71 10v-245h5q112 0 162 28.5z" />
    <glyph glyph-name="cent.tf" 
d="M565 91.5q49 33.5 72 84.5l92 -23q-32 -74 -103 -120.5t-183 -53.5v-69h-64v69q-98 4 -167.5 41.5t-104.5 97.5t-35 132t35.5 132t105 97.5t166.5 42.5v72h64v-72q115 -6 187.5 -52t100.5 -124l-98 -18q-19 51 -67.5 83t-122.5 38v-397q73 6 122 39.5zM195 155.5
q25 -43.5 72.5 -71.5t111.5 -33v399q-99 -7 -154 -63t-55 -137q0 -51 25 -94.5z" />
    <glyph glyph-name="sterling.tf" 
d="M764 156q-15 -83 -77.5 -129.5t-156.5 -46.5q-27 0 -56.5 4.5t-57.5 9.5q-46 9 -78 13t-72 4q-103 0 -208 -19l-20 66q163 44 163 180q0 46 -14 93h-124v63h105q-14 46 -14 91q0 109 75 169.5t209 60.5q111 0 182.5 -43.5t95.5 -125.5l-98 -23q-16 58 -63 88t-118 30
q-90 0 -134 -37.5t-44 -115.5q0 -47 14 -94h230v-63h-212q11 -36 11 -75q0 -64 -29 -106.5t-91 -69.5q51 8 116 8q41 0 76.5 -5t41.5 -6q64 -11 109 -11q62 0 100.5 27.5t47.5 79.5z" />
    <glyph glyph-name="florin.tf" 
d="M504 604.5q-35 -31.5 -49 -106.5l-12 -69h244v-72h-256l-88 -507h-100l90 507h-192v72h205l11 63q14 82 44.5 131.5t83 72t132.5 22.5q45 0 93 -14v-84q-55 16 -98 16q-73 0 -108 -31.5z" />
    <glyph glyph-name="yen.tf" 
d="M454 283h256v-57h-259v-70h259v-56h-259v-100h-99v100h-259v56h259v70h-259v57h256l-330 412h117l218 -281q27 -36 47 -78h2q19 41 46 78l218 281h117z" />
    <glyph glyph-name="Euro.tf" 
d="M757 146q-44 -80 -122 -123t-178 -43q-140 0 -229.5 74.5t-114.5 205.5h-74v56h67q-2 28 -2 43v1q0 24 1 36h-66v56h75q26 121 117.5 192t227.5 71q109 0 180.5 -40t110.5 -123l-78 -39q-32 65 -82 94t-138 29q-96 0 -156 -47.5t-80 -136.5h307v-56h-315q-1 -11 -1 -35
v-1q0 -16 2 -44h314v-56h-306q21 -96 82.5 -148.5t160.5 -52.5q70 0 125.5 31.5t93.5 92.5z" />
    <glyph glyph-name="percent.tf" 
d="M633 730h81l-528 -744h-81zM81.5 426.5q-46.5 46.5 -46.5 125.5q0 76 46.5 122.5t122.5 46.5q74 0 121 -47.5t47 -124.5q0 -76 -46.5 -122.5t-120.5 -46.5q-77 0 -123.5 46.5zM270 474q24 27 24 75q0 49 -24.5 77t-65.5 28q-42 0 -67.5 -27.5t-25.5 -74.5
q0 -50 25.5 -77.5t68.5 -27.5q41 0 65 27zM481.5 36.5q-46.5 46.5 -46.5 125.5q0 76 46.5 122.5t122.5 46.5q74 0 121.5 -47.5t47.5 -124.5q0 -76 -47 -122.5t-121 -46.5q-77 0 -123.5 46.5zM670.5 84.5q24.5 27.5 24.5 74.5q0 48 -25 76.5t-66 28.5q-42 0 -67.5 -27.5
t-25.5 -74.5q0 -50 25.5 -77.5t68.5 -27.5q41 0 65.5 27.5z" />
    <glyph glyph-name="perthousand.tf" 
d="M294 454.5q-42 -40.5 -111 -40.5t-111 40.5t-42 107.5t42 107.5t111 40.5t111 -40.5t42 -107.5t-42 -107.5zM122.5 497q22.5 -24 60.5 -24t60.5 24t22.5 65t-22.5 65t-60.5 24t-60.5 -24t-22.5 -65t22.5 -65zM684 530l-609 -309v69l609 310v-70zM730.5 236.5
q41.5 -40.5 41.5 -107.5t-41.5 -107.5t-111.5 -40.5q-37 0 -67 12.5t-50 35.5q-20 -23 -50 -35.5t-67 -12.5q-70 0 -111.5 40.5t-41.5 107.5t41.5 107.5t111.5 40.5q37 0 67 -12.5t50 -35.5q20 23 50 35.5t67 12.5q70 0 111.5 -40.5zM445.5 63.5q22.5 23.5 22.5 65.5
q0 41 -22.5 65t-60.5 24q-39 0 -61.5 -24t-22.5 -65q0 -42 22.5 -65.5t61.5 -23.5q38 0 60.5 23.5zM680.5 63.5q22.5 23.5 22.5 65.5q0 41 -22.5 65t-61.5 24q-38 0 -60.5 -24t-22.5 -65q0 -42 22.5 -65.5t60.5 -23.5q39 0 61.5 23.5z" />
    <glyph glyph-name="uni0308" unicode="&#x308;" horiz-adv-x="0" 
d="M-490 710h122v-113h-122v113zM-169 710h121v-113h-121v113z" />
    <glyph glyph-name="uni0307" unicode="&#x307;" horiz-adv-x="0" 
d="M-165 707h114v-116h-114v116z" />
    <glyph glyph-name="gravecomb" unicode="&#x300;" horiz-adv-x="0" 
d="M-108 579l-183 151h122l164 -151h-103z" />
    <glyph glyph-name="acutecomb" unicode="&#x301;" horiz-adv-x="0" 
d="M-110 730h122l-183 -151h-103z" />
    <glyph glyph-name="uni030B" unicode="&#x30b;" horiz-adv-x="0" 
d="M-271 730h97l-159 -151h-89zM-86 730h97l-159 -151h-89z" />
    <glyph glyph-name="uni0302" unicode="&#x302;" horiz-adv-x="0" 
d="M-117 579l-123 110l-123 -110h-97l164 151h112l164 -151h-97z" />
    <glyph glyph-name="uni030C" unicode="&#x30c;" horiz-adv-x="0" 
d="M-363 725l123 -110l123 110h97l-164 -151h-112l-164 151h97z" />
    <glyph glyph-name="uni0306" unicode="&#x306;" horiz-adv-x="0" 
d="M-333.5 657q30.5 -25 83.5 -25t83 25t34 73h78q-6 -75 -57.5 -115.5t-137.5 -40.5q-87 0 -138.5 40.5t-57.5 115.5h78q4 -48 34.5 -73z" />
    <glyph glyph-name="uni030A" unicode="&#x30a;" horiz-adv-x="0" 
d="M-298 586q-43 28 -43 75t43 75t116 28t116 -28t43 -75t-43 -75t-116 -28t-116 28zM-109.5 618.5q26.5 15.5 26.5 42.5q0 26 -26.5 41.5t-72.5 15.5t-72 -15.5t-26 -41.5q0 -27 26 -42.5t72 -15.5t72.5 15.5z" />
    <glyph glyph-name="tildecomb" unicode="&#x303;" horiz-adv-x="0" 
d="M-261.5 596q-26.5 10 -58.5 29q-27 15 -44.5 22.5t-40.5 7.5q-31 0 -51.5 -16.5t-27.5 -45.5l-67 13q11 55 49.5 85t98.5 30q37 0 63 -10t58 -29q27 -15 44.5 -22.5t40.5 -7.5q32 0 52.5 16t26.5 46l68 -13q-11 -55 -49.5 -85t-98.5 -30q-37 0 -63.5 10z" />
    <glyph glyph-name="uni0304" unicode="&#x304;" horiz-adv-x="0" 
d="M-516 675h466v-65h-466v65z" />
    <glyph glyph-name="uni0312" unicode="&#x312;" horiz-adv-x="0" 
d="M-60 729q-33 -12 -43.5 -27t-10.5 -37h64v-86h-113v69q0 44 17.5 70.5t64.5 42.5z" />
    <glyph glyph-name="uni0326" unicode="&#x326;" horiz-adv-x="0" 
d="M-152 -205q32 12 42.5 26.5t10.5 37.5h-64v86h113v-69q0 -45 -17.5 -71t-64.5 -42z" />
    <glyph glyph-name="uni0327" unicode="&#x327;" horiz-adv-x="0" 
d="M-176 7l-43 -58q22 14 63 14q49 0 77.5 -20.5t28.5 -56.5q0 -39 -37.5 -63.5t-98.5 -24.5q-48 0 -82 16t-50 45l65 13q17 -27 68 -27q29 0 45.5 10.5t16.5 28.5q0 19 -15 29.5t-43 10.5q-35 0 -61 -16l-49 12l54 87h61z" />
    <glyph glyph-name="uni0328" unicode="&#x328;" horiz-adv-x="0" 
d="M-96 -178.5q-36 -21.5 -93 -21.5q-52 0 -85.5 25.5t-33.5 64.5q0 44 36 76t106 49l89 -15q-75 -10 -115.5 -38.5t-40.5 -62.5q0 -22 15 -36t38 -14q47 0 65 48l65 -14q-10 -40 -46 -61.5z" />
    <glyph glyph-name="uni2003" unicode="&#x2003;" horiz-adv-x="1000" 
 />
    <glyph glyph-name="uni2002" unicode="&#x2002;" horiz-adv-x="500" 
 />
    <glyph glyph-name="uni2005" unicode="&#x2005;" horiz-adv-x="250" 
 />
    <glyph glyph-name="uni200A" unicode="&#x200a;" horiz-adv-x="75" 
 />
    <glyph glyph-name="uni00A0" unicode="&#xa0;" horiz-adv-x="423" 
 />
    <glyph glyph-name="uni2009" unicode="&#x2009;" horiz-adv-x="135" 
 />
    <glyph glyph-name="uni2004" unicode="&#x2004;" horiz-adv-x="333" 
 />
    <glyph glyph-name="uni0243" unicode="&#x243;" horiz-adv-x="929" 
d="M799 54.5q-64 -52.5 -180 -54.5v-101h-63v101h-191v-101h-62v101h-187v695h187v99h62v-99h191v99h63v-99q107 -4 165.5 -50t58.5 -129q0 -60 -33.5 -100t-93.5 -55q72 -14 109.5 -55.5t37.5 -109.5q0 -89 -64 -141.5zM217 613v-218h377q70 0 107 28t37 82t-38 81t-108 27
h-375zM719 112.5q39 30.5 39 88.5q0 57 -42 87.5t-119 30.5h-380v-237h386q77 0 116 30.5z" />
    <glyph glyph-name="uni20BF.case" horiz-adv-x="929" 
d="M799 55.5q-64 -53.5 -180 -55.5v-83h-63v83h-191v-83h-62v83h-187v710h187v90h62v-90h191v90h63v-90q107 -5 165.5 -51.5t58.5 -130.5q0 -62 -33.5 -103.5t-93.5 -56.5q72 -14 109.5 -56.5t37.5 -111.5q0 -91 -64 -144.5zM217 628v-225h377q70 0 107 29t37 84t-38 83.5
t-108 28.5h-375zM719 113.5q39 31.5 39 90.5t-42 90.5t-119 31.5h-380v-244h386q77 0 116 31.5z" />
    <glyph glyph-name="uni20BF.tf" 
d="M686.5 55q-57.5 -48 -164.5 -54v-108h-65v107h-141v-107h-64v107h-168v695h168v90h64v-90h141v90h65v-91q97 -7 149.5 -51.5t52.5 -126.5q0 -62 -36 -103t-100 -57q74 -11 115 -53.5t41 -110.5q0 -89 -57.5 -137zM181 617v-227h294q72 0 108.5 29.5t36.5 94.5
q0 54 -35 78.5t-102 24.5h-302zM602.5 105q37.5 27 37.5 91q0 60 -41 90t-116 30h-302v-238h305q79 0 116.5 27z" />
    <glyph glyph-name="uni20BF.tf.case" 
d="M686.5 56q-57.5 -49 -164.5 -55v-90h-65v89h-141v-89h-64v89h-168v709h168v91h64v-91h141v91h65v-92q97 -7 149.5 -52.5t52.5 -128.5q0 -64 -36 -105.5t-100 -57.5q74 -11 115 -54.5t41 -113.5q0 -91 -57.5 -140zM181 631v-232h294q72 0 108.5 30.5t36.5 95.5
q0 55 -35 80.5t-102 25.5h-302zM602.5 106.5q37.5 28.5 37.5 94.5q0 61 -41 91.5t-116 30.5h-302v-245h305q79 0 116.5 28.5z" />
    <glyph glyph-name="g.ss01" horiz-adv-x="864" 
d="M165 -169.5q-91 44.5 -114 134.5h108q21 -53 82.5 -77t165.5 -24q255 0 255 180v64q-37 -54 -114.5 -87t-176.5 -33q-95 0 -170.5 34.5t-118.5 96t-43 137.5q0 79 41.5 138.5t116 92t171.5 32.5q100 0 178.5 -32.5t117.5 -90.5l13 104h81v-457q0 -127 -92.5 -192
t-263.5 -65q-146 0 -237 44.5zM538 90q60 23 93 64.5t33 95.5v12q0 51 -34.5 91.5t-96.5 63.5t-140 23q-116 0 -184.5 -49.5t-68.5 -134.5q0 -57 32 -100t90.5 -66t136.5 -23q79 0 139 23z" />
    <glyph glyph-name="gbreve.ss01" horiz-adv-x="864" 
d="M165 -169.5q-91 44.5 -114 134.5h108q21 -53 82.5 -77t165.5 -24q255 0 255 180v64q-37 -54 -114.5 -87t-176.5 -33q-95 0 -170.5 34.5t-118.5 96t-43 137.5q0 79 41.5 138.5t116 92t171.5 32.5q100 0 178.5 -32.5t117.5 -90.5l13 104h81v-457q0 -127 -92.5 -192
t-263.5 -65q-146 0 -237 44.5zM538 90q60 23 93 64.5t33 95.5v12q0 51 -34.5 91.5t-96.5 63.5t-140 23q-116 0 -184.5 -49.5t-68.5 -134.5q0 -57 32 -100t90.5 -66t136.5 -23q79 0 139 23zM342.5 657q30.5 -25 83.5 -25t83 25t34 73h78q-6 -75 -57.5 -115.5t-137.5 -40.5
q-87 0 -138.5 40.5t-57.5 115.5h78q4 -48 34.5 -73z" />
    <glyph glyph-name="gcircumflex.ss01" horiz-adv-x="864" 
d="M165 -169.5q-91 44.5 -114 134.5h108q21 -53 82.5 -77t165.5 -24q255 0 255 180v64q-37 -54 -114.5 -87t-176.5 -33q-95 0 -170.5 34.5t-118.5 96t-43 137.5q0 79 41.5 138.5t116 92t171.5 32.5q100 0 178.5 -32.5t117.5 -90.5l13 104h81v-457q0 -127 -92.5 -192
t-263.5 -65q-146 0 -237 44.5zM538 90q60 23 93 64.5t33 95.5v12q0 51 -34.5 91.5t-96.5 63.5t-140 23q-116 0 -184.5 -49.5t-68.5 -134.5q0 -57 32 -100t90.5 -66t136.5 -23q79 0 139 23zM548 579l-123 110l-123 -110h-97l164 151h112l164 -151h-97z" />
    <glyph glyph-name="uni0123.ss01" horiz-adv-x="864" 
d="M165 -169.5q-91 44.5 -114 134.5h108q21 -53 82.5 -77t165.5 -24q255 0 255 180v64q-37 -54 -114.5 -87t-176.5 -33q-95 0 -170.5 34.5t-118.5 96t-43 137.5q0 79 41.5 138.5t116 92t171.5 32.5q100 0 178.5 -32.5t117.5 -90.5l13 104h81v-457q0 -127 -92.5 -192
t-263.5 -65q-146 0 -237 44.5zM538 90q60 23 93 64.5t33 95.5v12q0 51 -34.5 91.5t-96.5 63.5t-140 23q-116 0 -184.5 -49.5t-68.5 -134.5q0 -57 32 -100t90.5 -66t136.5 -23q79 0 139 23zM470 729q-33 -12 -43.5 -27t-10.5 -37h64v-86h-113v69q0 44 17.5 70.5t64.5 42.5z
" />
    <glyph glyph-name="gdotaccent.ss01" horiz-adv-x="864" 
d="M165 -169.5q-91 44.5 -114 134.5h108q21 -53 82.5 -77t165.5 -24q255 0 255 180v64q-37 -54 -114.5 -87t-176.5 -33q-95 0 -170.5 34.5t-118.5 96t-43 137.5q0 79 41.5 138.5t116 92t171.5 32.5q100 0 178.5 -32.5t117.5 -90.5l13 104h81v-457q0 -127 -92.5 -192
t-263.5 -65q-146 0 -237 44.5zM538 90q60 23 93 64.5t33 95.5v12q0 51 -34.5 91.5t-96.5 63.5t-140 23q-116 0 -184.5 -49.5t-68.5 -134.5q0 -57 32 -100t90.5 -66t136.5 -23q79 0 139 23zM368 707h114v-116h-114v116z" />
    <glyph glyph-name="g_g.liga.ss01" horiz-adv-x="1727" 
d="M165 -169.5q-91 44.5 -114 134.5h108q21 -53 82.5 -77t165.5 -24q255 0 255 180v64q-37 -54 -114.5 -87t-176.5 -33q-95 0 -170.5 34.5t-118.5 96t-43 137.5q0 79 41.5 138.5t116 92t171.5 32.5q100 0 178.5 -32.5t117.5 -90.5l13 104h81v-457q0 -127 -92.5 -192
t-263.5 -65q-146 0 -237 44.5zM538 90q60 23 93 64.5t33 95.5v12q0 51 -34.5 91.5t-96.5 63.5t-140 23q-116 0 -184.5 -49.5t-68.5 -134.5q0 -57 32 -100t90.5 -66t136.5 -23q79 0 139 23zM1029 -169.5q-91 44.5 -114 134.5h108q21 -53 82.5 -77t165.5 -24q255 0 255 180v64
q-37 -54 -114.5 -87t-176.5 -33q-95 0 -170.5 34.5t-118.5 96t-43 137.5q0 79 41.5 138.5t116 92t171.5 32.5q100 0 178.5 -32.5t117.5 -90.5l13 104h81v-457q0 -127 -92.5 -192t-263.5 -65q-146 0 -237 44.5zM1402 90q60 23 93 64.5t33 95.5v12q0 51 -34.5 91.5t-96.5 63.5
t-140 23q-116 0 -184.5 -49.5t-68.5 -134.5q0 -57 32 -100t90.5 -66t136.5 -23q79 0 139 23z" />
    <glyph glyph-name="g.sups.ss01" horiz-adv-x="660" 
d="M130.5 187q-64.5 33 -77.5 97h97q23 -75 163 -75q86 0 128.5 31.5t42.5 99.5v57q-26 -42 -81 -66t-128 -24q-69 0 -122 24t-82.5 68t-29.5 101q0 56 30 99t84 66.5t124 23.5q74 0 127 -23t81 -68l7 77h80v-332q0 -95 -66 -142t-200 -47q-113 0 -177.5 33zM399 381
q41 17 64 47.5t23 68.5v4q0 58 -49.5 94t-129.5 36q-79 0 -125 -35.5t-46 -96.5q0 -62 46.5 -98.5t123.5 -36.5q52 0 93 17z" />
    <glyph glyph-name="a.sups" horiz-adv-x="627" 
d="M104.5 325q-49.5 29 -49.5 82q0 59 49.5 84t138.5 31l215 12v8q0 92 -141 92q-66 0 -105.5 -20t-47.5 -59h-96q10 62 77.5 98t171.5 36q118 0 174.5 -40t56.5 -120v-96q0 -73 8 -123h-92q-4 38 -4 74q-25 -41 -82 -64.5t-138 -23.5q-86 0 -135.5 29zM368 365q43 15 67 41
t24 59v27l-188 -13q-69 -4 -96 -20t-27 -46t32.5 -46.5t90.5 -16.5q54 0 97 15z" />
    <glyph glyph-name="b.sups" horiz-adv-x="666" 
d="M179 383l-8 -73h-80v529h90v-238q28 42 80.5 65t128.5 23q70 0 123.5 -24.5t82 -68.5t28.5 -101q0 -59 -29.5 -104t-84.5 -70t-127 -25q-147 0 -204 87zM483 395q47 37 47 100q0 61 -45.5 97t-126.5 36q-53 0 -94 -17t-64 -47t-23 -67v-7q0 -58 49 -95t129 -37
q81 0 128 37z" />
    <glyph glyph-name="c.sups" horiz-adv-x="603" 
d="M110 349.5q-72 53.5 -72 144.5t72 143t197 52q103 0 169 -36t83 -102l-96 -13q-12 43 -53 66t-107 23q-80 0 -125 -35.5t-45 -97.5t46 -98.5t125 -36.5q65 0 106 22.5t55 65.5l93 -13q-16 -65 -83.5 -101.5t-169.5 -36.5q-123 0 -195 53.5z" />
    <glyph glyph-name="d.sups" horiz-adv-x="666" 
d="M154 321q-54 25 -83.5 70t-29.5 103q0 57 29.5 101.5t83.5 69t127 24.5q138 0 204 -84v234h90v-529h-87v78q-65 -92 -209 -92q-71 0 -125 25zM401.5 375q40.5 17 63 47t22.5 67v8q0 37 -23 67t-64 47t-93 17q-81 0 -126.5 -36t-45.5 -98q0 -63 46.5 -99.5t127.5 -36.5
q52 0 92.5 17z" />
    <glyph glyph-name="e.sups" horiz-adv-x="601" 
d="M558 475h-429q5 -55 51.5 -86t124.5 -31q61 0 106 20t65 56l73 -31q-33 -52 -95.5 -79.5t-151.5 -27.5q-124 0 -194 52.5t-70 144.5q0 91 70.5 143.5t189.5 52.5q122 0 191 -53t69 -146v-15zM463 526q-1 49 -46.5 79.5t-119.5 30.5q-73 0 -118 -30t-50 -80h334z" />
    <glyph glyph-name="f.sups" horiz-adv-x="430" 
d="M404 615h-169v-305h-89v305h-115v60h115v29q0 72 43.5 107.5t132.5 35.5q42 0 82 -8v-63q-30 7 -74 7q-51 0 -73 -18.5t-22 -61.5v-28h169v-60z" />
    <glyph glyph-name="g.sups" horiz-adv-x="620" 
d="M480 652q54 -32 54 -89q0 -60 -61.5 -93.5t-168.5 -33.5q-73 0 -127 16q-39 -9 -39 -34q0 -35 59 -35l239 -2q75 0 110.5 -24.5t35.5 -74.5q0 -65 -68 -96.5t-218 -31.5q-133 0 -193 23.5t-60 71.5q0 52 70 69q-56 20 -56 68q0 29 22.5 49.5t63.5 29.5q-70 34 -70 98
q0 60 61.5 93t169.5 33q82 0 139 -20q10 33 40 50t73 17q14 0 28 -2v-63q-21 3 -34 3q-49 0 -70 -22zM401.5 504.5q35.5 20.5 35.5 58.5t-35 58t-98 20q-64 0 -99.5 -20t-35.5 -58t36.5 -58.5t98.5 -20.5t97.5 20.5zM173 310q-11 0 -17 1q-37 -14 -37 -46q0 -33 43.5 -47.5
t146.5 -14.5q99 0 141.5 14.5t42.5 44.5q0 25 -18.5 35.5t-59.5 10.5z" />
    <glyph glyph-name="h.sups" horiz-adv-x="667" 
d="M91 839h90v-249q25 47 78 73.5t125 26.5q103 0 157.5 -54.5t54.5 -156.5v-169h-90v159q0 75 -39.5 115t-115.5 40q-78 0 -124 -41t-46 -111v-162h-90v529z" />
    <glyph glyph-name="i.sups" horiz-adv-x="263" 
d="M83 833h97v-102h-97v102zM87 675h89v-365h-89v365z" />
    <glyph glyph-name="j.sups" horiz-adv-x="273" 
d="M90 833h97v-102h-97v102zM-20 166v67q20 -4 50 -4q65 0 65 81v365h90v-377q0 -138 -145 -138q-41 0 -60 6z" />
    <glyph glyph-name="k.sups" horiz-adv-x="599" 
d="M316 506l-135 -93v-103h-90v529h90v-352l266 188h122l-181 -129l193 -236h-105z" />
    <glyph glyph-name="l.sups" horiz-adv-x="272" 
d="M181 310h-90v529h90v-529z" />
    <glyph glyph-name="m.sups" horiz-adv-x="955" 
d="M174 675v-87q20 48 64.5 75t108.5 27q65 0 108.5 -27.5t59.5 -76.5q25 49 72.5 76.5t111.5 27.5q91 0 138.5 -50t47.5 -146v-184h-90v172q0 68 -32 103.5t-96 35.5q-62 0 -99.5 -37t-37.5 -99v-175h-89v176q0 135 -128 135q-62 0 -99.5 -38.5t-37.5 -104.5v-168h-90v365
h88z" />
    <glyph glyph-name="n.sups" horiz-adv-x="662" 
d="M86 675h88v-90q26 50 79 77.5t128 27.5q102 0 156 -52t54 -151v-177h-90v162q0 150 -152 150q-80 0 -126.5 -40.5t-46.5 -110.5v-161h-90v365z" />
    <glyph glyph-name="o.sups" horiz-adv-x="612" 
d="M166 320.5q-61 24.5 -94.5 69t-33.5 103.5t33.5 103.5t94.5 68.5t141 24t141 -24t94 -68.5t33 -103.5t-33 -103.5t-94 -69t-141 -24.5t-141 24.5zM434 394q48 37 48 99t-48 98.5t-127 36.5q-80 0 -127.5 -36.5t-47.5 -98.5q0 -63 47.5 -99.5t127.5 -36.5q79 0 127 37z
" />
    <glyph glyph-name="p.sups" horiz-adv-x="661" 
d="M86 675h89v-76q28 42 81 66t129 24q70 0 123 -24t82 -68.5t29 -102.5q0 -59 -30 -104t-84 -69.5t-124 -24.5q-74 0 -125.5 23t-79.5 61v-212h-90v507zM479 394.5q46 36.5 46 99.5q0 62 -45.5 98t-125.5 36t-130 -36.5t-50 -94.5v-6q0 -59 49.5 -96t129.5 -37t126 36.5z
" />
    <glyph glyph-name="q.sups" horiz-adv-x="661" 
d="M485 382q-27 -39 -80 -63t-127 -24q-70 0 -124 25t-83.5 70.5t-29.5 104.5t29.5 103.5t83 68.5t124.5 24q148 0 211 -93l7 77h79v-507h-90v214zM438.5 395q48.5 38 48.5 96v7q0 58 -49.5 95t-132.5 37q-77 0 -123.5 -35.5t-46.5 -99.5q0 -65 47 -101.5t127 -36.5
q81 0 129.5 38z" />
    <glyph glyph-name="r.sups" horiz-adv-x="414" 
d="M226.5 648.5q44.5 35.5 111.5 35.5q31 0 50 -4v-78q-20 4 -57 4q-69 0 -107 -35q-48 -48 -48 -139v-122h-90v365h79v-124q17 62 61.5 97.5z" />
    <glyph glyph-name="s.sups" horiz-adv-x="571" 
d="M132 322q-69 26 -98 77l56 40q33 -42 87 -62.5t138 -20.5q125 0 125 55q0 22 -15.5 33t-55.5 15l-180 13q-130 10 -130 103q0 55 53.5 84.5t159.5 29.5q177 0 251 -87l-53 -44q-32 38 -80.5 55.5t-126.5 17.5q-58 0 -88.5 -13.5t-30.5 -36.5q0 -19 17.5 -29.5t56.5 -12.5
l173 -13q74 -6 105 -32t31 -76q0 -122 -223 -122q-103 0 -172 26z" />
    <glyph glyph-name="t.sups" horiz-adv-x="443" 
d="M22 675h114v91l89 33v-124h174v-60h-174v-158q0 -47 25 -68t73 -21q36 0 76 8v-60q-38 -15 -98 -15q-165 0 -165 140v174h-114v60z" />
    <glyph glyph-name="u.sups" horiz-adv-x="659" 
d="M407.5 324.5q-53.5 -28.5 -130.5 -28.5q-100 0 -153 47t-53 139v193h90v-172q0 -77 41 -109.5t106 -32.5q57 0 96.5 21t59 55.5t19.5 75.5v162h90v-365h-89v94q-23 -51 -76.5 -79.5z" />
    <glyph glyph-name="v.sups" horiz-adv-x="579" 
d="M14 675h100l152 -253q16 -28 22 -41h3q9 21 22 41l153 253h100l-226 -365h-101z" />
    <glyph glyph-name="w.sups" horiz-adv-x="856" 
d="M25 675h91l111 -254q11 -31 14 -42h2q5 20 16 42l123 254h93l122 -254q11 -22 16 -42h2q6 24 15 42l110 254h91l-166 -365h-98l-123 251q-11 21 -15 42h-2q-4 -21 -15 -42l-123 -251h-98z" />
    <glyph glyph-name="x.sups" horiz-adv-x="579" 
d="M227 496l-194 179h113l112 -102q16 -15 32 -36h1q21 26 32 35l112 103h108l-193 -177l204 -188h-113l-123 111q-20 19 -32 33h-1q-10 -14 -32 -34l-122 -110h-106z" />
    <glyph glyph-name="y.sups" horiz-adv-x="569" 
d="M44 163v69q26 -3 51 -3q99 0 143 66l6 11l-230 369h102l144 -245q17 -30 28 -53h2q13 26 28 51l140 247h97l-225 -385q-42 -70 -92 -101t-130 -31q-39 0 -64 5z" />
    <glyph glyph-name="z.sups" horiz-adv-x="565" 
d="M392 617h-328v58h446v-58l-339 -249h349v-58h-468v60z" />
    <glyph glyph-name="uni24FF" unicode="&#x24ff;" horiz-adv-x="949" 
d="M240.5 21q-100.5 45 -155.5 130.5t-55 203.5t55 203.5t155.5 130.5t234.5 45t234.5 -45t155 -130.5t54.5 -203.5t-54.5 -203.5t-155 -130.5t-234.5 -45t-234.5 45zM647.5 201.5q65.5 54.5 65.5 153.5t-66 153.5t-172 54.5t-172.5 -54t-66.5 -152q0 -101 66 -155.5
t174 -54.5q106 0 171.5 54.5zM367 244q-42 37 -42 113q0 73 42.5 110t107.5 37q66 0 107.5 -37.5t41.5 -111.5t-41 -111t-107 -37q-67 0 -109 37z" />
    <glyph glyph-name="uni2776" unicode="&#x2776;" horiz-adv-x="949" 
d="M240.5 21q-100.5 45 -155.5 130.5t-55 203.5t55 203.5t155.5 130.5t234.5 45t234.5 -45t155 -130.5t54.5 -203.5t-54.5 -203.5t-155 -130.5t-234.5 -45t-234.5 45zM542 161v389h-73q-12 -37 -48.5 -56.5t-83.5 -19.5h-13v-71h23q31 0 60.5 11t46.5 35v-288h88z" />
    <glyph glyph-name="uni2777" unicode="&#x2777;" horiz-adv-x="949" 
d="M240.5 21q-100.5 45 -155.5 130.5t-55 203.5t55 203.5t155.5 130.5t234.5 45t234.5 -45t155 -130.5t54.5 -203.5t-54.5 -203.5t-155 -130.5t-234.5 -45t-234.5 45zM686 157v60h-291q124 50 202 103.5t78 119.5q0 119 -205 119q-88 0 -146 -30t-58 -94q0 -12 1 -17l87 -6
q-2 8 -2 11q0 43 35 60t85 17q52 0 82 -19t30 -51q0 -37 -38 -71t-101 -66t-182 -85v-51h423z" />
    <glyph glyph-name="uni2778" unicode="&#x2778;" horiz-adv-x="949" 
d="M240.5 21q-100.5 45 -155.5 130.5t-55 203.5t55 203.5t155.5 130.5t234.5 45t234.5 -45t155 -130.5t54.5 -203.5t-54.5 -203.5t-155 -130.5t-234.5 -45t-234.5 45zM631.5 177.5q62.5 30.5 62.5 89.5q0 37 -33.5 63.5t-94.5 32.5q51 4 84.5 24t33.5 61q0 58 -59 86.5
t-154 28.5q-99 0 -156.5 -36.5t-56.5 -100.5l89 -4q-1 43 31.5 64t93.5 21q53 0 87 -18t34 -52q0 -28 -30 -42t-74 -14h-48v-43h52q64 0 86.5 -20t22.5 -40q0 -38 -36.5 -56t-93.5 -18q-59 0 -94 23t-33 63l-89 -5q-1 -63 57.5 -100.5t157.5 -37.5q98 0 160.5 30.5z" />
    <glyph glyph-name="uni2779" unicode="&#x2779;" horiz-adv-x="949" 
d="M240.5 21q-100.5 45 -155.5 130.5t-55 203.5t55 203.5t155.5 130.5t234.5 45t234.5 -45t155 -130.5t54.5 -203.5t-54.5 -203.5t-155 -130.5t-234.5 -45t-234.5 45zM612 162v88h112v57h-112v244h-90l-302 -246v-55h306v-88h86zM526 489v-182h-226z" />
    <glyph glyph-name="uni277A" unicode="&#x277a;" horiz-adv-x="949" 
d="M240.5 21q-100.5 45 -155.5 130.5t-55 203.5t55 203.5t155.5 130.5t234.5 45t234.5 -45t155 -130.5t54.5 -203.5t-54.5 -203.5t-155 -130.5t-234.5 -45t-234.5 45zM624.5 192.5q58.5 38.5 58.5 101.5q0 60 -49 95.5t-134 35.5q-50 0 -88 -13.5t-58 -38.5l13 128h289v56
h-357l-23 -227l75 -7q7 20 42.5 35.5t77.5 15.5q59 0 91 -21t32 -59t-33.5 -60.5t-90.5 -22.5q-49 0 -81.5 17t-40.5 46l-83 -6q8 -51 63.5 -82.5t139.5 -31.5q98 0 156.5 38.5z" />
    <glyph glyph-name="uni277B" unicode="&#x277b;" horiz-adv-x="949" 
d="M240.5 21q-100.5 45 -155.5 130.5t-55 203.5t55 203.5t155.5 130.5t234.5 45t234.5 -45t155 -130.5t54.5 -203.5t-54.5 -203.5t-155 -130.5t-234.5 -45t-234.5 45zM636.5 183.5q58.5 36.5 58.5 102.5q0 63 -51 99t-142 36q-123 0 -166 -59q3 81 40 114t107 33
q47 0 76.5 -14t39.5 -40l88 5q-33 103 -201 103q-113 0 -173 -55.5t-60 -162.5q0 -101 55.5 -149.5t168.5 -48.5q101 0 159.5 36.5zM341 297q31 65 141 65q57 0 90.5 -21t33.5 -55q0 -40 -34.5 -61t-94.5 -21q-114 0 -136 93z" />
    <glyph glyph-name="uni277C" unicode="&#x277c;" horiz-adv-x="949" 
d="M240.5 21q-100.5 45 -155.5 130.5t-55 203.5t55 203.5t155.5 130.5t234.5 45t234.5 -45t155 -130.5t54.5 -203.5t-54.5 -203.5t-155 -130.5t-234.5 -45t-234.5 45zM495 161q-1 96 50 183t135 143v63h-411v-63h336q-97 -59 -147.5 -144t-51.5 -182h89z" />
    <glyph glyph-name="uni277D" unicode="&#x277d;" horiz-adv-x="949" 
d="M240.5 21q-100.5 45 -155.5 130.5t-55 203.5t55 203.5t155.5 130.5t234.5 45t234.5 -45t155 -130.5t54.5 -203.5t-54.5 -203.5t-155 -130.5t-234.5 -45t-234.5 45zM637.5 177.5q58.5 30.5 58.5 85.5q0 45 -28.5 73.5t-95.5 37.5q58 11 85.5 30.5t27.5 55.5q0 48 -57 75.5
t-156 27.5q-95 0 -151 -29.5t-56 -80.5q0 -80 119 -99q-131 -19 -131 -96q0 -51 59 -81t160 -30q107 0 165.5 30.5zM454 391q-53 6 -76.5 20.5t-23.5 39.5q0 27 33 44.5t86 17.5q58 0 91 -17.5t33 -48.5q0 -28 -19 -42t-67 -21zM377.5 218.5q-35.5 20.5 -35.5 55.5
q0 27 24 44t74 26l64 -9q57 -9 79.5 -25t22.5 -42q0 -32 -36 -51t-97 -19q-60 0 -95.5 20.5z" />
    <glyph glyph-name="uni277E" unicode="&#x277e;" horiz-adv-x="949" 
d="M240.5 21q-100.5 45 -155.5 130.5t-55 203.5t55 203.5t155.5 130.5t234.5 45t234.5 -45t155 -130.5t54.5 -203.5t-54.5 -203.5t-155 -130.5t-234.5 -45t-234.5 45zM638.5 203.5q57.5 56.5 57.5 171.5q0 188 -228 188q-97 0 -155.5 -35t-58.5 -98q0 -61 52.5 -95.5
t141.5 -34.5q118 0 165 43q-4 -71 -39 -104t-105 -33q-46 0 -77 18.5t-39 43.5l-88 -6q17 -56 67.5 -85.5t132.5 -29.5q116 0 173.5 56.5zM378 372.5q-35 21.5 -35 57.5q0 39 35.5 60.5t95.5 21.5q64 0 97 -27t40 -88q-20 -21 -57 -33.5t-84 -12.5q-57 0 -92 21.5z" />
    <glyph glyph-name="zero.case" horiz-adv-x="876" 
d="M237 24.5q-86 48.5 -133 134.5t-47 196q0 111 47 197t133 134t201 48t201.5 -48t133 -134t46.5 -197q0 -110 -46.5 -196t-133 -134.5t-201.5 -48.5t-201 48.5zM587.5 94.5q63.5 36.5 97 104t33.5 156.5q0 90 -33.5 157.5t-97 104t-149.5 36.5t-149.5 -36.5t-97 -104
t-33.5 -157.5q0 -89 33.5 -156.5t97 -104t149.5 -36.5t149.5 36.5z" />
    <glyph glyph-name="one.case" horiz-adv-x="485" 
d="M253 554q-22 -30 -73 -50.5t-121 -20.5h-34v88h21q82 0 138 38t80 101h85v-710h-96v554z" />
    <glyph glyph-name="two.case" horiz-adv-x="811" 
d="M39 87q173 60 283.5 109t181.5 98q69 47 96.5 90.5t27.5 100.5q0 45 -24 83t-76 61.5t-132 23.5q-109 0 -172 -49t-63 -135q0 -22 5 -44l-104 11q-6 20 -6 47q0 70 42 127.5t119.5 90.5t179.5 33q114 0 190 -34.5t111.5 -90.5t35.5 -122q0 -146 -175 -251
q-74 -44 -153 -80t-192 -68h542v-88h-717v87z" />
    <glyph glyph-name="three.case" horiz-adv-x="831" 
d="M161.5 39q-93.5 63 -110.5 170l99 12q40 -163 268 -163q122 0 185.5 36.5t63.5 100.5q0 75 -60.5 102.5t-170.5 27.5h-89v78h86q99 0 154.5 30t55.5 95q0 60 -57.5 92.5t-177.5 32.5q-116 0 -178.5 -47.5t-71.5 -125.5l-95 18q6 67 46 120.5t116.5 84.5t186.5 31
q167 0 249.5 -55.5t82.5 -148.5q0 -72 -50.5 -112t-126.5 -48q91 -8 147 -50.5t56 -125.5q0 -60 -37 -109t-116 -79t-201 -30q-161 0 -254.5 63z" />
    <glyph glyph-name="four.case" horiz-adv-x="792" 
d="M625 183v-183h-95v183h-516v67l489 460h122v-451h156v-76h-156zM533 637h-3q-8 -15 -20.5 -28.5t-46.5 -46.5l-244 -234q-45 -44 -80 -69h391v273q0 74 3 105z" />
    <glyph glyph-name="five.case" horiz-adv-x="802" 
d="M172 31.5q-93 55.5 -119 156.5l103 18q18 -70 84 -109t168 -39q116 0 180 47.5t64 134.5q0 85 -60 129.5t-168 44.5q-95 0 -153.5 -31t-95.5 -99l-97 8l49 418h585v-84h-507l-32 -247q33 54 107.5 85t175.5 31q141 0 219.5 -65t78.5 -189q0 -82 -42.5 -141.5t-121 -91.5
t-183.5 -32q-142 0 -235 55.5z" />
    <glyph glyph-name="six.case" horiz-adv-x="835" 
d="M695 418.5q84 -64.5 84 -183.5q0 -75 -43 -134t-120 -92t-175 -33q-120 0 -206.5 45t-132 130t-45.5 205q0 119 44 204t128 129.5t201 44.5q137 0 229 -55.5t111 -151.5l-101 -22q-23 75 -82.5 111.5t-157.5 36.5q-134 0 -205 -76t-71 -219l1 -6v-15q35 69 114.5 107.5
t187.5 38.5q155 0 239 -64.5zM565.5 79.5q53.5 21.5 83 62t29.5 93.5q0 83 -59.5 125t-175.5 42q-107 0 -179 -46.5t-92 -128.5q28 -83 96 -126t173 -43q71 0 124.5 21.5z" />
    <glyph glyph-name="seven.case" horiz-adv-x="713" 
d="M211 16q0 170 94 326.5t263 282.5h-548v85h677v-76q-172 -118 -270 -270t-98 -339v-25h-118v16z" />
    <glyph glyph-name="eight.case" horiz-adv-x="835" 
d="M736.5 309q46.5 -45 46.5 -116q0 -68 -43 -116.5t-124 -74.5t-192 -26q-179 0 -275.5 53.5t-96.5 153.5q0 72 50 118.5t145 65.5q-89 24 -130 66t-41 108q0 59 41.5 103t119.5 67t183 23q102 0 178 -23.5t117.5 -67t41.5 -102.5q0 -62 -44 -103.5t-124 -58.5
q101 -25 147.5 -70zM221 464.5q44 -29.5 139 -44.5l121 -20q95 28 135 60t40 79q0 60 -61.5 92t-174.5 32q-116 0 -179.5 -31t-63.5 -89q0 -49 44 -78.5zM613.5 92.5q67.5 35.5 67.5 99.5q0 57 -50.5 89t-166.5 48l-102 16q-108 -22 -157.5 -59t-49.5 -96q0 -65 69.5 -99
t199.5 -34q122 0 189.5 35.5z" />
    <glyph glyph-name="nine.case" horiz-adv-x="835" 
d="M679 637q99 -97 99 -272q0 -121 -43 -208t-127 -134t-203 -47q-90 0 -162.5 25.5t-118.5 73t-59 112.5l101 23q22 -83 81.5 -117.5t158.5 -34.5q134 0 205 79.5t71 224.5l-1 11v20q-35 -61 -114 -100t-191 -39q-151 0 -235.5 59.5t-84.5 174.5q0 74 42.5 130t120.5 86
t182 30q179 0 278 -97zM573 378q72 43 90 115q-26 78 -91.5 119.5t-170.5 41.5q-115 0 -179.5 -43t-64.5 -122q0 -78 60.5 -116t174.5 -38q109 0 181 43z" />
    <glyph glyph-name="one.case.ss02" horiz-adv-x="719" 
d="M697 88v-88h-642v88h287v468q-29 -37 -92 -62.5t-153 -25.5h-34v88h22q100 0 169.5 42t99.5 112h85v-622h258z" />
    <glyph glyph-name="zero.case.zero" horiz-adv-x="876" 
d="M639.5 686q86.5 -48 133 -134t46.5 -197q0 -110 -46.5 -196t-133 -134.5t-201.5 -48.5t-201 48.5t-133 134.5t-47 196q0 111 47 197t133 134t201 48t201.5 -48zM195 193l446 382q-75 78 -203 78q-86 0 -149.5 -36.5t-97 -104t-33.5 -157.5q0 -93 37 -162zM587.5 94.5
q63.5 36.5 97 104t33.5 156.5q0 93 -37 164l-445 -383q36 -38 87.5 -58t114.5 -20q86 0 149.5 36.5z" />
    <glyph glyph-name="uni24EA" unicode="&#x24ea;" horiz-adv-x="949" 
d="M301.5 202q-65.5 55 -65.5 154q0 98 66 152.5t172 54.5q108 0 174 -55t66 -154q0 -98 -66 -152.5t-173 -54.5q-108 0 -173.5 55zM586 243q42 38 42 111q0 75 -42.5 113t-111.5 38q-67 0 -110 -38t-43 -111q0 -75 42.5 -113t111.5 -38t111 38zM240.5 21
q-100.5 45 -155.5 130.5t-55 203.5t55 203.5t155.5 130.5t234.5 45t234.5 -45t155 -130.5t54.5 -203.5t-54.5 -203.5t-155 -130.5t-234.5 -45t-234.5 45zM678 64q88 40 137 115t49 176t-49 176t-137 115t-203 40q-116 0 -204 -40t-136.5 -115t-48.5 -176t48.5 -176
t136.5 -115t204 -40q115 0 203 40z" />
    <glyph glyph-name="uni2460" unicode="&#x2460;" horiz-adv-x="949" 
d="M456 451q-18 -23 -48 -34.5t-61 -11.5h-22v69h13q47 0 83 20t48 56h71v-389h-84v290zM240.5 21q-100.5 45 -155.5 130.5t-55 203.5t55 203.5t155.5 130.5t234.5 45t234.5 -45t155 -130.5t54.5 -203.5t-54.5 -203.5t-155 -130.5t-234.5 -45t-234.5 45zM678 64
q88 40 137 115t49 176t-49 176t-137 115t-203 40q-116 0 -204 -40t-136.5 -115t-48.5 -176t48.5 -176t136.5 -115t204 -40q115 0 203 40z" />
    <glyph glyph-name="uni2461" unicode="&#x2461;" horiz-adv-x="949" 
d="M262 217l20 9q113 48 173 78t97 63t37 70q0 32 -31.5 52t-85.5 20q-51 0 -86.5 -17.5t-35.5 -59.5q0 -10 1 -16l-84 6q-2 12 -2 18q0 64 59 95.5t147 31.5q93 0 149 -29t56 -92q0 -68 -77.5 -120t-203.5 -102h292v-59h-425v52zM240.5 21q-100.5 45 -155.5 130.5
t-55 203.5t55 203.5t155.5 130.5t234.5 45t234.5 -45t155 -130.5t54.5 -203.5t-54.5 -203.5t-155 -130.5t-234.5 -45t-234.5 45zM678 64q88 40 137 115t49 176t-49 176t-137 115t-203 40q-116 0 -204 -40t-136.5 -115t-48.5 -176t48.5 -176t136.5 -115t204 -40q115 0 203 40
z" />
    <glyph glyph-name="uni2462" unicode="&#x2462;" horiz-adv-x="949" 
d="M315 184q-58 37 -60 100l84 5q1 -40 36.5 -62t96.5 -22q59 0 96.5 16.5t37.5 51.5q0 30 -29 44t-104 14h-46v56h46q124 0 124 56q0 31 -35 47t-90 16q-62 0 -96 -21t-35 -63l-84 4q2 64 59 100.5t157 36.5q94 0 152 -28t58 -85q0 -42 -33 -62.5t-84 -24.5
q128 -11 128 -91q0 -61 -62 -93t-160 -32q-99 0 -157 37zM240.5 21q-100.5 45 -155.5 130.5t-55 203.5t55 203.5t155.5 130.5t234.5 45t234.5 -45t155 -130.5t54.5 -203.5t-54.5 -203.5t-155 -130.5t-234.5 -45t-234.5 45zM678 64q88 40 137 115t49 176t-49 176t-137 115
t-203 40q-116 0 -204 -40t-136.5 -115t-48.5 -176t48.5 -176t136.5 -115t204 -40q115 0 203 40z" />
    <glyph glyph-name="uni2463" unicode="&#x2463;" horiz-adv-x="949" 
d="M595 268v-90h-83v90h-307v52l301 247h89v-244h109v-55h-109zM284 323h228v185zM240.5 21q-100.5 45 -155.5 130.5t-55 203.5t55 203.5t155.5 130.5t234.5 45t234.5 -45t155 -130.5t54.5 -203.5t-54.5 -203.5t-155 -130.5t-234.5 -45t-234.5 45zM678 64q88 40 137 115
t49 176t-49 176t-137 115t-203 40q-116 0 -204 -40t-136.5 -115t-48.5 -176t48.5 -176t136.5 -115t204 -40q115 0 203 40z" />
    <glyph glyph-name="uni2464" unicode="&#x2464;" horiz-adv-x="949" 
d="M328.5 185q-55.5 31 -63.5 83l80 7q7 -31 41 -48t86 -17q59 0 93 23t34 62t-32.5 60.5t-93.5 21.5q-43 0 -79.5 -16t-44.5 -37l-73 6l25 227h355v-54h-291l-14 -129q20 26 59.5 40t90.5 14q86 0 134.5 -36t48.5 -97q0 -63 -58.5 -102t-156.5 -39q-85 0 -140.5 31z
M240.5 21q-100.5 45 -155.5 130.5t-55 203.5t55 203.5t155.5 130.5t234.5 45t234.5 -45t155 -130.5t54.5 -203.5t-54.5 -203.5t-155 -130.5t-234.5 -45t-234.5 45zM678 64q88 40 137 115t49 176t-49 176t-137 115t-203 40q-116 0 -204 -40t-136.5 -115t-48.5 -176t48.5 -176
t136.5 -115t204 -40q115 0 203 40z" />
    <glyph glyph-name="uni2465" unicode="&#x2465;" horiz-adv-x="949" 
d="M643 386q51 -36 51 -100q0 -65 -58 -102t-158 -37q-225 0 -225 200q0 105 59.5 160.5t172.5 55.5q83 0 134.5 -26t67.5 -76l-85 -7q-22 56 -120 56q-72 0 -110.5 -35t-40.5 -116q21 31 65 47t105 16q91 0 142 -36zM574.5 224.5q35.5 21.5 35.5 61.5q0 36 -34.5 57.5
t-92.5 21.5q-55 0 -93 -18.5t-52 -52.5q23 -91 140 -91q61 0 96.5 21.5zM240.5 21q-100.5 45 -155.5 130.5t-55 203.5t55 203.5t155.5 130.5t234.5 45t234.5 -45t155 -130.5t54.5 -203.5t-54.5 -203.5t-155 -130.5t-234.5 -45t-234.5 45zM678 64q88 40 137 115t49 176
t-49 176t-137 115t-203 40q-116 0 -204 -40t-136.5 -115t-48.5 -176t48.5 -176t136.5 -115t204 -40q115 0 203 40z" />
    <glyph glyph-name="uni2466" unicode="&#x2466;" horiz-adv-x="949" 
d="M269 550h413v-61q-86 -55 -138.5 -142.5t-52.5 -184.5v-1h-88v2q-1 95 52 180.5t150 145.5h-336v61zM240.5 21q-100.5 45 -155.5 130.5t-55 203.5t55 203.5t155.5 130.5t234.5 45t234.5 -45t155 -130.5t54.5 -203.5t-54.5 -203.5t-155 -130.5t-234.5 -45t-234.5 45z
M678 64q88 40 137 115t49 176t-49 176t-137 115t-203 40q-116 0 -204 -40t-136.5 -115t-48.5 -176t48.5 -176t136.5 -115t204 -40q115 0 203 40z" />
    <glyph glyph-name="uni2467" unicode="&#x2467;" horiz-adv-x="949" 
d="M669 333q28 -27 28 -70q0 -55 -59 -85.5t-165 -30.5q-102 0 -161.5 30t-59.5 81q0 77 116 97q-103 25 -103 98q0 51 56 80.5t152 29.5q98 0 155 -27.5t57 -76.5q0 -36 -27 -56.5t-84 -28.5q67 -14 95 -41zM373.5 412q23.5 -15 77.5 -22l59 -7q51 9 70.5 23.5t19.5 41.5
q0 31 -34 48.5t-93 17.5q-56 0 -89.5 -17.5t-33.5 -44.5q0 -25 23.5 -40zM573 217q37 19 37 51q0 27 -23.5 43t-82.5 25l-68 8q-50 -9 -73.5 -26.5t-23.5 -45.5q0 -34 36 -54t98 -20q63 0 100 19zM240.5 21q-100.5 45 -155.5 130.5t-55 203.5t55 203.5t155.5 130.5t234.5 45
t234.5 -45t155 -130.5t54.5 -203.5t-54.5 -203.5t-155 -130.5t-234.5 -45t-234.5 45zM678 64q88 40 137 115t49 176t-49 176t-137 115t-203 40q-116 0 -204 -40t-136.5 -115t-48.5 -176t48.5 -176t136.5 -115t204 -40q115 0 203 40z" />
    <glyph glyph-name="uni2468" unicode="&#x2468;" horiz-adv-x="949" 
d="M695 372q0 -225 -230 -225q-83 0 -134.5 29.5t-66.5 84.5l84 7q10 -28 41 -46t80 -18q72 0 108.5 35t38.5 109q-51 -49 -168 -49q-90 0 -142 34.5t-52 96.5q0 63 58 98t155 35q228 0 228 -191zM557.5 365q37.5 14 55.5 39q-8 56 -42.5 82t-97.5 26q-62 0 -98 -21.5
t-36 -60.5q0 -37 35.5 -58t94.5 -21q51 0 88.5 14zM240.5 21q-100.5 45 -155.5 130.5t-55 203.5t55 203.5t155.5 130.5t234.5 45t234.5 -45t155 -130.5t54.5 -203.5t-54.5 -203.5t-155 -130.5t-234.5 -45t-234.5 45zM678 64q88 40 137 115t49 176t-49 176t-137 115t-203 40
q-116 0 -204 -40t-136.5 -115t-48.5 -176t48.5 -176t136.5 -115t204 -40q115 0 203 40z" />
    <glyph glyph-name="zero.osf" horiz-adv-x="865" 
d="M230 12.5q-88 36.5 -136.5 102.5t-48.5 152q0 87 48.5 153t136.5 102.5t203 36.5t203 -36.5t136.5 -102.5t48.5 -153q0 -86 -48.5 -152t-137 -102.5t-202.5 -36.5q-115 0 -203 36.5zM585 83q65 26 100 73.5t35 110.5q0 64 -35 111.5t-100 73t-152 25.5q-88 0 -153 -25.5
t-100 -73t-35 -111.5q0 -63 35.5 -110.5t100.5 -73.5t152 -26t152 26z" />
    <glyph glyph-name="one.osf" horiz-adv-x="768" 
d="M738 83v-83h-658l1 83h287v315q-21 -29 -85 -54.5t-146 -30.5h-43v88h32q92 0 161 36t96 98h81v-452h274z" />
    <glyph glyph-name="two.osf" horiz-adv-x="819" 
d="M330.5 159q96.5 29 152.5 53q67 29 95.5 60.5t28.5 75.5q0 38 -25.5 67.5t-71.5 46t-104 16.5q-107 0 -163 -37t-56 -107q0 -14 2 -27l-101 14q-2 22 -2 28q0 62 40.5 110t113.5 74t169 26q89 0 157 -26t105.5 -72.5t37.5 -107.5q0 -44 -25.5 -82t-73.5 -67
q-125 -73 -348 -121h494v-83h-700v83q178 47 274.5 76z" />
    <glyph glyph-name="three.osf" horiz-adv-x="827" 
d="M228.5 -148q-77.5 26 -123.5 74t-54 113l99 10q17 -70 83 -106t175 -36q122 0 188.5 36t66.5 102q0 58 -53.5 85.5t-168.5 27.5h-89v77h86q97 0 148.5 30t51.5 86q0 63 -59 95t-175 32q-114 0 -180 -44t-70 -125l-95 15q0 69 44.5 122.5t124 83t180.5 29.5
q156 0 243.5 -54.5t87.5 -151.5q0 -58 -42.5 -99.5t-109.5 -49.5q82 -10 130.5 -53.5t48.5 -107.5q0 -66 -44 -115t-125.5 -75.5t-190.5 -26.5q-100 0 -177.5 26z" />
    <glyph glyph-name="four.osf" horiz-adv-x="795" 
d="M532 20h-516v67l489 448h122v-439h156v-76h-156v-170h-95v170zM532 96v297q0 45 3 69h-3q-16 -26 -46 -55l-290 -265q-22 -21 -57 -46h393z" />
    <glyph glyph-name="five.osf" 
d="M172.5 -119q-93.5 55 -119.5 154l103 18q18 -69 84.5 -107.5t167.5 -38.5q117 0 181 47t64 133q0 80 -59.5 124.5t-168.5 44.5q-94 0 -153 -30t-96 -97l-98 8l50 398h584v-84h-506l-33 -229q33 53 108.5 83.5t174.5 30.5q144 0 221.5 -64.5t77.5 -183.5q0 -80 -42.5 -139
t-120.5 -91t-184 -32q-142 0 -235.5 55z" />
    <glyph glyph-name="six.osf" horiz-adv-x="835" 
d="M695 413.5q84 -63.5 84 -179.5q0 -74 -43 -131.5t-120 -90t-175 -32.5q-120 0 -206.5 44.5t-132 128t-45.5 200.5q0 113 44.5 194.5t128.5 124.5t201 43q90 0 162.5 -24t118.5 -68t58 -103l-101 -22q-45 136 -239 136q-134 0 -205.5 -72t-70.5 -208v-6v-13
q35 67 114.5 104.5t187.5 37.5q155 0 239 -63.5zM565.5 82.5q53.5 21.5 83 60.5t29.5 91q0 80 -59 121t-175 41q-108 0 -180 -45t-92 -124q28 -81 96 -123.5t173 -42.5q71 0 124.5 21.5z" />
    <glyph glyph-name="seven.osf" horiz-adv-x="713" 
d="M211 -134q0 159 92 308.5t266 275.5h-549v85h678v-76q-183 -120 -275.5 -267t-92.5 -317v-25h-119v16z" />
    <glyph glyph-name="eight.osf" horiz-adv-x="835" 
d="M737 306q46 -44 46 -113q0 -66 -43 -114t-124 -73.5t-192 -25.5q-178 0 -275 53t-97 151q0 69 50 114.5t144 64.5q-89 23 -129.5 64t-40.5 106q0 56 42 97t119.5 63t182.5 22q102 0 178 -22.5t117.5 -63.5t41.5 -96q0 -60 -43.5 -101t-121.5 -56q99 -26 145 -70z
M220.5 458.5q43.5 -28.5 139.5 -43.5l121 -18q95 26 135 57t40 77q0 54 -61.5 83t-174.5 29q-116 0 -179.5 -28t-63.5 -80q0 -48 43.5 -76.5zM613.5 95q68.5 35 68.5 97q0 55 -50.5 86t-166.5 47l-103 16q-108 -21 -157.5 -57.5t-49.5 -93.5q0 -62 69.5 -96t199.5 -34
q121 0 189.5 35z" />
    <glyph glyph-name="nine.osf" horiz-adv-x="836" 
d="M680 461.5q99 -95.5 99 -267.5q0 -175 -99.5 -271.5t-280.5 -96.5q-134 0 -217.5 44t-108.5 129l96 21q19 -58 75.5 -85.5t154.5 -27.5q138 0 210.5 73t72.5 212v10v20q-36 -60 -116 -95.5t-182 -35.5q-158 0 -243 61t-85 174q0 69 43 121.5t121 81t182 28.5
q179 0 278 -95.5zM575 211.5q70 39.5 89 108.5q-27 78 -93.5 118.5t-168.5 40.5q-116 0 -180.5 -40t-64.5 -113q0 -76 62 -115t182 -39q104 0 174 39.5z" />
    <glyph glyph-name="zero.osf.zero" horiz-adv-x="865" 
d="M636 522.5q88 -36.5 136.5 -102.5t48.5 -153q0 -86 -48.5 -152t-137 -102.5t-202.5 -36.5q-115 0 -203 36.5t-136.5 102.5t-48.5 152q0 87 48.5 153t136.5 102.5t203 36.5t203 -36.5zM280 451.5q-65 -25.5 -100 -73t-35 -111.5q0 -75 50 -128l429 293q-74 45 -191 45
q-88 0 -153 -25.5zM585 83q65 26 100 73.5t35 110.5q0 75 -48 128l-429 -294q77 -44 190 -44q87 0 152 26z" />
    <glyph glyph-name="one.ss02" horiz-adv-x="719" 
d="M695 88v-88h-642v88h287v453q-29 -37 -92 -62.5t-153 -25.5h-34v88h21q101 0 170 42t99 112h86v-607h258z" />
    <glyph glyph-name="zero.tf.case" 
d="M210.5 22.5q-81.5 46.5 -125 132t-43.5 200.5q0 116 44 201.5t125 131.5t191 46t191 -46t124.5 -131.5t43.5 -201.5t-44 -201.5t-125 -131.5t-190 -46q-110 0 -191.5 46.5zM595 132.5q67 80.5 67 222.5q0 143 -67.5 223.5t-192.5 80.5q-126 0 -193 -81t-68 -223
q1 -143 68.5 -223t192.5 -80q126 0 193 80.5z" />
    <glyph glyph-name="one.tf.case" 
d="M740 88v-88h-642v88h287v467q-29 -38 -92 -64t-153 -26h-34v88h21q101 0 170 43t99 114h86v-622h258z" />
    <glyph glyph-name="two.tf.case" 
d="M62 70q167 84 271.5 143.5t166.5 107.5q61 46 85 89t24 96q0 68 -53.5 110.5t-155.5 42.5q-95 0 -155 -43t-69 -124l-1 -13l1 -15l-98 14q0 22 1 33q8 70 53 120t116 76.5t155 26.5q102 0 170.5 -29.5t102 -80t33.5 -114.5q0 -58 -25.5 -109t-83.5 -103
q-58 -51 -150.5 -104t-231.5 -114h522v-80h-678v70z" />
    <glyph glyph-name="three.tf.case" 
d="M232 4q-75 28 -117.5 77.5t-50.5 112.5l95 11q15 -70 77.5 -112t173.5 -42q109 0 169 36.5t60 107.5q0 76 -58.5 105.5t-163.5 29.5h-70v69h66q89 0 144.5 35t55.5 101q0 56 -53 90t-162 34q-112 0 -166.5 -49.5t-58.5 -129.5l-97 16q0 58 36 112.5t109 90t180 35.5
q152 0 232 -54t80 -144q0 -47 -26 -82.5t-65 -56.5t-78 -26q81 -8 137.5 -52.5t56.5 -125.5q0 -99 -84.5 -158t-246.5 -59q-100 0 -175 28z" />
    <glyph glyph-name="four.tf.case" 
d="M521 184h-489v57l465 469h119v-453h154v-73h-154v-184h-95v184zM521 257v315q0 46 3 71h-3q-7 -13 -16.5 -25t-17.5 -20t-11 -12l-270 -279q-19 -21 -56 -50h371z" />
    <glyph glyph-name="five.tf.case" 
d="M178.5 29q-86.5 53 -107.5 143l96 8q15 -59 77.5 -93t163.5 -34q105 0 165 48.5t60 135.5q0 77 -53 125t-162 48q-81 0 -138.5 -28t-87.5 -76l-94 7l41 397h543v-77h-463l-26 -249q34 41 97.5 69.5t150.5 28.5t153 -30t102.5 -85.5t36.5 -129.5q0 -75 -40 -134
t-115.5 -93t-176.5 -34q-136 0 -222.5 53z" />
    <glyph glyph-name="six.tf.case" 
d="M661.5 419.5q80.5 -63.5 80.5 -184.5q0 -73 -39 -132t-111.5 -93t-166.5 -34q-114 0 -196 45t-125 130.5t-43 204.5q0 179 92 278.5t260 99.5q129 0 215.5 -52t105.5 -145l-101 -23q-42 139 -220 139q-124 0 -189.5 -76t-65.5 -218v-8v-12q32 66 103.5 105t177.5 39
q142 0 222.5 -63.5zM583.5 107q58.5 49 58.5 128q0 84 -56 125.5t-159 41.5q-102 0 -168 -47.5t-84 -129.5q26 -82 89.5 -124.5t160.5 -42.5q100 0 158.5 49z" />
    <glyph glyph-name="seven.tf.case" 
d="M265 16q0 170 89.5 326.5t250.5 282.5h-535v85h663v-76q-163 -118 -256 -270t-93 -339v-25h-119v16z" />
    <glyph glyph-name="eight.tf.case" 
d="M706.5 313q48.5 -43 48.5 -119q0 -102 -91.5 -160t-255.5 -58q-174 0 -267 54t-93 154q0 69 48 116t140 66q-78 22 -121 63t-43 112q0 59 40.5 103t115.5 67t176 23q98 0 172 -23.5t114 -67.5t40 -102q0 -61 -42 -103.5t-118 -58.5q88 -23 136.5 -66zM216.5 462
q43.5 -29 127.5 -42l121 -19q90 28 127 59t37 79q0 59 -58 91.5t-167 32.5q-111 0 -171 -31.5t-60 -89.5q0 -51 43.5 -80zM589.5 92.5q64.5 35.5 64.5 100.5q0 60 -52 90.5t-153 45.5l-100 15q-103 -21 -150.5 -58t-47.5 -96q0 -64 66 -98.5t191 -34.5q117 0 181.5 35.5z
" />
    <glyph glyph-name="nine.tf.case" 
d="M652 637q94 -97 94 -272q0 -183 -89.5 -286t-253.5 -103q-132 0 -223 52t-110 142l101 22q21 -73 78.5 -103.5t153.5 -30.5q119 0 182 79.5t63 225.5l1 10v19q-33 -60 -107 -99t-178 -39q-142 0 -222.5 59.5t-80.5 174.5q0 74 41 129.5t115 86t171 30.5q170 0 264 -97z
M548.5 379q66.5 44 82.5 117q-25 77 -86 117.5t-157 40.5q-106 0 -166.5 -43.5t-60.5 -122.5q0 -77 57 -115t161 -38q103 0 169.5 44z" />
    <glyph glyph-name="zero.tf.case.zero" 
d="M593 688q81 -46 124.5 -131.5t43.5 -201.5t-44 -201.5t-125 -131.5t-190 -46q-110 0 -191.5 46.5t-125 132t-43.5 200.5q0 116 44 201.5t125 131.5t191 46t191 -46zM209 578q-67 -81 -68 -223q0 -88 28 -155l431 372q-68 87 -198 87q-126 0 -193 -81zM595 132.5
q67 80.5 67 222.5q0 91 -27 155l-431 -371q68 -87 198 -87q126 0 193 80.5z" />
    <glyph glyph-name="zero.tosf" 
d="M211.5 13.5q-81.5 37.5 -125.5 103.5t-44 151t44.5 151t126 103t189.5 37t189.5 -37t126 -103t44.5 -151t-44.5 -151t-126 -103.5t-189.5 -37.5q-109 0 -190.5 37.5zM539.5 83.5q58.5 26.5 90 74t31.5 109.5q0 63 -31 110.5t-89.5 73.5t-138.5 26q-79 0 -137.5 -26
t-90 -73t-31.5 -110q0 -62 31 -110t89.5 -74.5t138.5 -26.5q79 0 137.5 26.5z" />
    <glyph glyph-name="one.tosf" 
d="M706 75v-75h-594v75h264v325q-20 -30 -83.5 -55.5t-145.5 -30.5h-42v87h31q91 0 160 36t95 98h81v-460h234z" />
    <glyph glyph-name="two.tosf" 
d="M327.5 160q95.5 29 150.5 53q67 30 94.5 61.5t27.5 74.5q0 33 -22.5 63t-67.5 48.5t-110 18.5q-106 0 -162 -37t-56 -107q0 -18 2 -28l-100 15q-2 9 -2 28q0 58 37.5 105.5t110.5 75.5t173 28q98 0 165 -29t99.5 -76t32.5 -101q0 -43 -24.5 -82t-73.5 -68
q-122 -71 -347 -120h493v-83h-695v83q179 48 274.5 77z" />
    <glyph glyph-name="three.tosf" 
d="M232 -146.5q-75 27.5 -117.5 76.5t-50.5 111l95 11q15 -69 77.5 -110t173.5 -41q109 0 169 35.5t60 104.5q0 70 -58.5 96.5t-163.5 26.5h-70v68h66q89 0 144.5 34t55.5 98q0 55 -53 87.5t-162 32.5q-112 0 -166.5 -48t-58.5 -126l-97 16q0 56 36 109.5t109 88.5t180 35
q101 0 171.5 -24.5t105.5 -68.5t35 -101q0 -46 -26 -80.5t-65 -54.5t-78 -25q81 -8 137.5 -49t56.5 -116q0 -63 -37 -111t-111.5 -75.5t-182.5 -27.5q-100 0 -175 27.5z" />
    <glyph glyph-name="four.tosf" 
d="M521 20h-489v58l466 457h118v-441h154v-74h-154v-170h-95v170zM521 94v306q0 44 3 69h-3q-8 -14 -19 -28t-25 -28l-270 -271q-25 -25 -57 -48h371z" />
    <glyph glyph-name="five.tosf" 
d="M179 -122q-87 52 -108 140l96 9q15 -57 77.5 -91t162.5 -34q105 0 165.5 48.5t60.5 131.5q0 75 -53 122t-161 47q-82 0 -139.5 -27.5t-87.5 -74.5l-94 8l41 378h544v-77h-464l-26 -232q35 40 98.5 68t150.5 28q86 0 152 -29t102.5 -83.5t36.5 -126.5q0 -73 -40 -131.5
t-115.5 -92t-176.5 -33.5q-135 0 -222 52z" />
    <glyph glyph-name="six.tosf" 
d="M661.5 415q80.5 -62 80.5 -181q0 -72 -39.5 -130t-111.5 -91t-166 -33q-114 0 -196 44.5t-125 128.5t-43 200q0 171 93.5 266.5t267.5 95.5q122 0 207.5 -50t103.5 -136l-100 -22q-21 64 -75 95.5t-135 31.5q-130 0 -198 -72.5t-67 -206.5v-8v-10q32 63 103.5 101.5
t177.5 38.5q142 0 222.5 -62zM541 83q49 22 75 61.5t26 89.5q0 82 -55.5 122t-159.5 40q-102 0 -167.5 -46t-83.5 -124q26 -81 89 -123t160 -42q67 0 116 22z" />
    <glyph glyph-name="seven.tosf" 
d="M265 -134q0 163 89.5 313t250.5 271h-535v85h663v-76q-349 -244 -349 -584v-25h-119v16z" />
    <glyph glyph-name="eight.tosf" 
d="M706.5 306.5q48.5 -42.5 48.5 -117.5q0 -64 -41 -111t-119.5 -72.5t-186.5 -25.5q-173 0 -266.5 52t-93.5 148q0 68 47.5 113.5t137.5 64.5q-77 21 -119 61.5t-42 109.5q0 57 40.5 99t115.5 64.5t176 22.5q98 0 172 -23t114 -65t40 -98q0 -60 -41.5 -101t-117.5 -57
q87 -22 135.5 -64.5zM216.5 452q43.5 -28 127.5 -41l119 -19q90 27 128 58t38 77q0 32 -26.5 58.5t-77 42t-121.5 15.5q-72 0 -124.5 -14.5t-79.5 -40.5t-27 -58q0 -50 43.5 -78zM589.5 94q64.5 34 64.5 94q0 59 -51.5 88t-153.5 45l-103 15q-101 -21 -148 -57t-47 -93
q0 -60 66.5 -93t190.5 -33q117 0 181.5 34z" />
    <glyph glyph-name="nine.tosf" 
d="M580.5 516q80.5 -43 123 -124.5t42.5 -194.5q0 -174 -89.5 -272.5t-253.5 -98.5q-133 0 -223.5 50.5t-109.5 138.5l101 22q21 -70 79 -100t153 -30q119 0 182 76t63 212v9v17q-34 -58 -107.5 -95.5t-176.5 -37.5q-142 0 -222.5 59t-80.5 171q0 72 41 126.5t115 84.5
t171 30q112 0 192.5 -43zM547.5 211.5q66.5 42.5 83.5 112.5q-25 75 -86 115t-157 40q-105 0 -166 -42.5t-61 -118.5q0 -75 57 -112t161 -37q102 0 168.5 42.5z" />
    <glyph glyph-name="zero.tosf.zero" 
d="M591.5 522q81.5 -37 126 -103t44.5 -151t-44.5 -151t-126 -103.5t-189.5 -37.5q-109 0 -190.5 37.5t-125.5 103.5t-44 151t44.5 151t126 103t189.5 37t189.5 -37zM264.5 451q-58.5 -26 -90 -73t-31.5 -110q0 -69 37 -118l404 276q-68 51 -182 51q-79 0 -137.5 -26z
M539.5 83.5q58.5 26.5 90 74t31.5 109.5q0 69 -36 117l-403 -276q68 -51 180 -51q79 0 137.5 26.5z" />
    <glyph glyph-name="zero.subs" horiz-adv-x="667" 
d="M186 -124q-64 33 -99.5 94t-35.5 144q0 82 35.5 143.5t99.5 94.5t148 33t147.5 -33t99 -94.5t35.5 -144.5q0 -82 -35.5 -143t-99 -94t-147.5 -33t-148 33zM470 -36.5q51 53.5 51 149.5t-51 150t-136 54t-136.5 -53.5t-51.5 -149.5q0 -97 51 -150.5t137 -53.5
q85 0 136 53.5z" />
    <glyph glyph-name="one.subs" horiz-adv-x="394" 
d="M195 246q-20 -25 -56 -40t-80 -15h-27v77h15q59 0 101.5 26.5t58.5 72.5h78v-507h-90v386z" />
    <glyph glyph-name="two.subs" horiz-adv-x="621" 
d="M45 -75l26 11q131 54 206.5 91t126.5 83t51 100q0 46 -38.5 76.5t-112.5 30.5q-69 0 -113 -30t-44 -87q0 -7 2 -25l-93 8q-3 14 -3 29q0 53 32.5 92t89.5 60t128 21q117 0 183 -45.5t66 -123.5q0 -63 -44.5 -113t-116 -89t-180.5 -83h356v-71h-522v65z" />
    <glyph glyph-name="three.subs" horiz-adv-x="632" 
d="M123 -111q-70 46 -76 125l94 8q5 -53 50 -83.5t123 -30.5t123 25t45 72q0 41 -37 64t-113 23h-63v55h60q63 0 101 20.5t38 61.5q0 43 -41 66.5t-116 23.5q-78 0 -121 -31t-45 -87l-92 10q2 51 32 90t88 61.5t138 22.5q120 0 186.5 -39t66.5 -110q0 -53 -39 -80t-98 -32
q70 -6 110.5 -38t40.5 -88q0 -70 -70 -112.5t-195 -42.5q-120 0 -190 46z" />
    <glyph glyph-name="four.subs" horiz-adv-x="633" 
d="M489 -17v-123h-90v123h-374v60l361 324h103v-320h124v-64h-124zM121 47h278v255z" />
    <glyph glyph-name="five.subs" horiz-adv-x="609" 
d="M131.5 -117q-67.5 40 -81.5 110l91 11q10 -45 54 -70.5t110 -25.5q77 0 120 32t43 88t-41 86t-115 30q-60 0 -102.5 -22t-60.5 -61l-83 8l32 298h432v-66h-360l-20 -171q25 36 75.5 56t117.5 20q103 0 161.5 -46t58.5 -130q0 -57 -32 -99t-90.5 -65t-137.5 -23
q-104 0 -171.5 40z" />
    <glyph glyph-name="six.subs" horiz-adv-x="634" 
d="M524 155.5q62 -46.5 62 -129.5q0 -55 -32 -96.5t-90.5 -64t-135.5 -22.5q-135 0 -206.5 68t-71.5 197q0 133 73 205t207 72q101 0 166 -37.5t81 -105.5l-94 -12q-14 44 -53 67t-103 23q-93 0 -141 -53t-48 -155v-10q26 48 81 74t131 26q112 0 174 -46.5zM447 -60
q44 32 44 85q0 55 -41 85t-118 30q-72 0 -119 -29t-63 -82q18 -59 63 -90t115 -31q75 0 119 32z" />
    <glyph glyph-name="seven.subs" horiz-adv-x="548" 
d="M175 -127q0 122 65.5 231t185.5 192h-403v71h499v-67q-115 -79 -180.5 -184t-65.5 -235v-21h-101v13z" />
    <glyph glyph-name="eight.subs" horiz-adv-x="637" 
d="M553 84.5q35 -33.5 35 -88.5q0 -73 -70.5 -113t-198.5 -40t-199 38.5t-71 107.5q0 50 38 83t109 44q-68 17 -99.5 48t-31.5 80q0 65 68 103t185 38t185 -37t68 -100q0 -91 -129 -112q76 -18 111 -51.5zM189 189q30 -20 96 -29l81 -11q61 15 86.5 36t25.5 54
q0 41 -42.5 64t-117.5 23q-73 0 -116 -22.5t-43 -60.5q0 -34 30 -54zM447 -70.5q46 25.5 46 69.5q0 38 -33 59.5t-108 32.5l-79 11q-67 -13 -98 -38t-31 -64q0 -45 46.5 -70.5t128.5 -25.5t128 25.5z" />
    <glyph glyph-name="nine.subs" horiz-adv-x="634" 
d="M511.5 319q71.5 -66 71.5 -192q0 -138 -70.5 -211t-207.5 -73q-100 0 -165 39t-82 110l93 13q27 -96 157 -96q94 0 140.5 54t46.5 158q-28 -36 -82 -58t-130 -22q-110 0 -172.5 43.5t-62.5 125.5q0 53 32 92.5t90 61t135 21.5q135 0 206.5 -66zM421 128.5
q49 24.5 67 65.5q-30 129 -179 129q-77 0 -121.5 -29.5t-44.5 -83.5q0 -52 43 -79t118 -27q68 0 117 24.5z" />
    <glyph glyph-name="zero.dnom" horiz-adv-x="557" 
d="M105.5 41q-65.5 55 -65.5 154q0 98 66 152.5t172 54.5q108 0 174 -55t66 -154q0 -98 -66 -152.5t-173 -54.5q-108 0 -173.5 55zM390 82q42 38 42 111q0 75 -42.5 113t-111.5 38q-67 0 -110 -38t-43 -111q0 -75 42.5 -113t111.5 -38t111 38z" />
    <glyph glyph-name="one.dnom" horiz-adv-x="331" 
d="M158 290q-18 -23 -48 -34.5t-61 -11.5h-22v69h13q47 0 83 20t48 56h71v-389h-84v290z" />
    <glyph glyph-name="two.dnom" horiz-adv-x="511" 
d="M39 52l20 9q113 48 173 78t97 63t37 70q0 32 -31.5 52t-85.5 20q-51 0 -86.5 -17.5t-35.5 -59.5q0 -10 1 -16l-84 6q-2 12 -2 18q0 64 59 95.5t147 31.5q93 0 149 -29t56 -92q0 -68 -77.5 -120t-203.5 -102h292v-59h-425v52z" />
    <glyph glyph-name="three.dnom" horiz-adv-x="519" 
d="M98 23q-58 37 -60 100l84 5q1 -40 36.5 -62t96.5 -22q59 0 96.5 16.5t37.5 51.5q0 30 -29 44t-104 14h-46v56h46q124 0 124 56q0 31 -35 47t-90 16q-62 0 -96 -21t-35 -63l-84 4q2 64 59 100.5t157 36.5q94 0 152 -28t58 -85q0 -42 -33 -62.5t-84 -24.5q128 -11 128 -91
q0 -61 -62 -93t-160 -32q-99 0 -157 37z" />
    <glyph glyph-name="four.dnom" horiz-adv-x="542" 
d="M413 90v-90h-83v90h-307v52l301 247h89v-244h109v-55h-109zM102 145h228v185z" />
    <glyph glyph-name="five.dnom" horiz-adv-x="495" 
d="M103.5 17q-55.5 31 -63.5 83l80 7q7 -31 41 -48t86 -17q59 0 93 23t34 62t-32.5 60.5t-93.5 21.5q-43 0 -79.5 -16t-44.5 -37l-73 6l25 227h355v-54h-291l-14 -129q20 26 59.5 40t90.5 14q86 0 134.5 -36t48.5 -97q0 -63 -58.5 -102t-156.5 -39q-85 0 -140.5 31z" />
    <glyph glyph-name="six.dnom" horiz-adv-x="519" 
d="M430 225q51 -36 51 -100q0 -65 -58 -102t-158 -37q-225 0 -225 200q0 105 59.5 160.5t172.5 55.5q83 0 134.5 -26t67.5 -76l-85 -7q-22 56 -120 56q-72 0 -110.5 -35t-40.5 -116q21 31 65 47t105 16q91 0 142 -36zM361.5 63.5q35.5 21.5 35.5 61.5q0 36 -34.5 57.5
t-92.5 21.5q-55 0 -93 -18.5t-52 -52.5q23 -91 140 -91q61 0 96.5 21.5z" />
    <glyph glyph-name="seven.dnom" horiz-adv-x="453" 
d="M17 389h413v-61q-86 -55 -138.5 -142.5t-52.5 -184.5v-1h-88v2q-1 95 52 180.5t150 145.5h-336v61z" />
    <glyph glyph-name="eight.dnom" horiz-adv-x="523" 
d="M456 172q28 -27 28 -70q0 -55 -59 -85.5t-165 -30.5q-102 0 -161.5 30t-59.5 81q0 77 116 97q-103 25 -103 98q0 51 56 80.5t152 29.5q98 0 155 -27.5t57 -76.5q0 -36 -27 -56.5t-84 -28.5q67 -14 95 -41zM160.5 251q23.5 -15 77.5 -22l59 -7q51 9 70.5 23.5t19.5 41.5
q0 31 -34 48.5t-93 17.5q-56 0 -89.5 -17.5t-33.5 -44.5q0 -25 23.5 -40zM360 56q37 19 37 51q0 27 -23.5 43t-82.5 25l-68 8q-50 -9 -73.5 -26.5t-23.5 -45.5q0 -34 36 -54t98 -20q63 0 100 19z" />
    <glyph glyph-name="nine.dnom" horiz-adv-x="519" 
d="M479 211q0 -225 -230 -225q-83 0 -134.5 29.5t-66.5 84.5l84 7q10 -28 41 -46t80 -18q72 0 108.5 35t38.5 109q-51 -49 -168 -49q-90 0 -142 34.5t-52 96.5q0 63 58 98t155 35q228 0 228 -191zM341.5 204q37.5 14 55.5 39q-8 56 -42.5 82t-97.5 26q-62 0 -98 -21.5
t-36 -60.5q0 -37 35.5 -58t94.5 -21q51 0 88.5 14z" />
    <glyph glyph-name="zero.numr" horiz-adv-x="557" 
d="M105.5 363q-65.5 55 -65.5 154q0 98 66 152.5t172 54.5q108 0 174 -55t66 -154q0 -98 -66 -152.5t-173 -54.5q-108 0 -173.5 55zM390 404q42 38 42 111q0 75 -42.5 113t-111.5 38q-67 0 -110 -38t-43 -111q0 -75 42.5 -113t111.5 -38t111 38z" />
    <glyph glyph-name="one.numr" horiz-adv-x="331" 
d="M158 612q-18 -23 -48 -34.5t-61 -11.5h-22v69h13q47 0 83 20t48 56h71v-389h-84v290z" />
    <glyph glyph-name="two.numr" horiz-adv-x="511" 
d="M39 374l20 9q113 48 173 78t97 63t37 70q0 32 -31.5 52t-85.5 20q-51 0 -86.5 -17.5t-35.5 -59.5q0 -10 1 -16l-84 6q-2 12 -2 18q0 64 59 95.5t147 31.5q93 0 149 -29t56 -92q0 -68 -77.5 -120t-203.5 -102h292v-59h-425v52z" />
    <glyph glyph-name="three.numr" horiz-adv-x="519" 
d="M98 345q-58 37 -60 100l84 5q1 -40 36.5 -62t96.5 -22q59 0 96.5 16.5t37.5 51.5q0 30 -29 44t-104 14h-46v56h46q124 0 124 56q0 31 -35 47t-90 16q-62 0 -96 -21t-35 -63l-84 4q2 64 59 100.5t157 36.5q94 0 152 -28t58 -85q0 -42 -33 -62.5t-84 -24.5q128 -11 128 -91
q0 -61 -62 -93t-160 -32q-99 0 -157 37z" />
    <glyph glyph-name="four.numr" horiz-adv-x="542" 
d="M413 412v-90h-83v90h-307v52l301 247h89v-244h109v-55h-109zM102 467h228v185z" />
    <glyph glyph-name="five.numr" horiz-adv-x="495" 
d="M103.5 339q-55.5 31 -63.5 83l80 7q7 -31 41 -48t86 -17q59 0 93 23t34 62t-32.5 60.5t-93.5 21.5q-43 0 -79.5 -16t-44.5 -37l-73 6l25 227h355v-54h-291l-14 -129q20 26 59.5 40t90.5 14q86 0 134.5 -36t48.5 -97q0 -63 -58.5 -102t-156.5 -39q-85 0 -140.5 31z" />
    <glyph glyph-name="six.numr" horiz-adv-x="519" 
d="M430 547q51 -36 51 -100q0 -65 -58 -102t-158 -37q-225 0 -225 200q0 105 59.5 160.5t172.5 55.5q83 0 134.5 -26t67.5 -76l-85 -7q-22 56 -120 56q-72 0 -110.5 -35t-40.5 -116q21 31 65 47t105 16q91 0 142 -36zM361.5 385.5q35.5 21.5 35.5 61.5q0 36 -34.5 57.5
t-92.5 21.5q-55 0 -93 -18.5t-52 -52.5q23 -91 140 -91q61 0 96.5 21.5z" />
    <glyph glyph-name="seven.numr" horiz-adv-x="453" 
d="M17 711h413v-61q-86 -55 -138.5 -142.5t-52.5 -184.5v-1h-88v2q-1 95 52 180.5t150 145.5h-336v61z" />
    <glyph glyph-name="eight.numr" horiz-adv-x="523" 
d="M456 494q28 -27 28 -70q0 -55 -59 -85.5t-165 -30.5q-102 0 -161.5 30t-59.5 81q0 77 116 97q-103 25 -103 98q0 51 56 80.5t152 29.5q98 0 155 -27.5t57 -76.5q0 -36 -27 -56.5t-84 -28.5q67 -14 95 -41zM160.5 573q23.5 -15 77.5 -22l59 -7q51 9 70.5 23.5t19.5 41.5
q0 31 -34 48.5t-93 17.5q-56 0 -89.5 -17.5t-33.5 -44.5q0 -25 23.5 -40zM360 378q37 19 37 51q0 27 -23.5 43t-82.5 25l-68 8q-50 -9 -73.5 -26.5t-23.5 -45.5q0 -34 36 -54t98 -20q63 0 100 19z" />
    <glyph glyph-name="nine.numr" horiz-adv-x="519" 
d="M479 533q0 -225 -230 -225q-83 0 -134.5 29.5t-66.5 84.5l84 7q10 -28 41 -46t80 -18q72 0 108.5 35t38.5 109q-51 -49 -168 -49q-90 0 -142 34.5t-52 96.5q0 63 58 98t155 35q228 0 228 -191zM341.5 526q37.5 14 55.5 39q-8 56 -42.5 82t-97.5 26q-62 0 -98 -21.5
t-36 -60.5q0 -37 35.5 -58t94.5 -21q51 0 88.5 14z" />
    <glyph glyph-name="zero.sups" horiz-adv-x="667" 
d="M186 326q-64 33 -99.5 94t-35.5 144q0 82 35.5 143.5t99.5 94.5t148 33t147.5 -33t99 -94.5t35.5 -144.5q0 -82 -35.5 -143t-99 -94t-147.5 -33t-148 33zM470 413.5q51 53.5 51 149.5t-51 150t-136 54t-136.5 -53.5t-51.5 -149.5q0 -97 51 -150.5t137 -53.5
q85 0 136 53.5z" />
    <glyph glyph-name="one.sups" horiz-adv-x="394" 
d="M195 696q-20 -25 -56 -40t-80 -15h-27v77h15q59 0 101.5 26.5t58.5 72.5h78v-507h-90v386z" />
    <glyph glyph-name="two.sups" horiz-adv-x="621" 
d="M45 375l26 11q131 54 206.5 91t126.5 83t51 100q0 46 -38.5 76.5t-112.5 30.5q-69 0 -113 -30t-44 -87q0 -7 2 -25l-93 8q-3 14 -3 29q0 53 32.5 92t89.5 60t128 21q117 0 183 -45.5t66 -123.5q0 -63 -44.5 -113t-116 -89t-180.5 -83h356v-71h-522v65z" />
    <glyph glyph-name="three.sups" horiz-adv-x="632" 
d="M123 339q-70 46 -76 125l94 8q5 -53 50 -83.5t123 -30.5t123 25t45 72q0 41 -37 64t-113 23h-63v55h60q63 0 101 20.5t38 61.5q0 43 -41 66.5t-116 23.5q-78 0 -121 -31t-45 -87l-92 10q2 51 32 90t88 61.5t138 22.5q120 0 186.5 -39t66.5 -110q0 -53 -39 -80t-98 -32
q70 -6 110.5 -38t40.5 -88q0 -70 -70 -112.5t-195 -42.5q-120 0 -190 46z" />
    <glyph glyph-name="four.sups" horiz-adv-x="633" 
d="M489 433v-123h-90v123h-374v60l361 324h103v-320h124v-64h-124zM121 497h278v255z" />
    <glyph glyph-name="five.sups" horiz-adv-x="609" 
d="M131.5 333q-67.5 40 -81.5 110l91 11q10 -45 54 -70.5t110 -25.5q77 0 120 32t43 88t-41 86t-115 30q-60 0 -102.5 -22t-60.5 -61l-83 8l32 298h432v-66h-360l-20 -171q25 36 75.5 56t117.5 20q103 0 161.5 -46t58.5 -130q0 -57 -32 -99t-90.5 -65t-137.5 -23
q-104 0 -171.5 40z" />
    <glyph glyph-name="six.sups" horiz-adv-x="634" 
d="M524 605.5q62 -46.5 62 -129.5q0 -55 -32 -96.5t-90.5 -64t-135.5 -22.5q-135 0 -206.5 68t-71.5 197q0 133 73 205t207 72q101 0 166 -37.5t81 -105.5l-94 -12q-14 44 -53 67t-103 23q-93 0 -141 -53t-48 -155v-10q26 48 81 74t131 26q112 0 174 -46.5zM447 390
q44 32 44 85q0 55 -41 85t-118 30q-72 0 -119 -29t-63 -82q18 -59 63 -90t115 -31q75 0 119 32z" />
    <glyph glyph-name="seven.sups" horiz-adv-x="548" 
d="M175 323q0 122 65.5 231t185.5 192h-403v71h499v-67q-115 -79 -180.5 -184t-65.5 -235v-21h-101v13z" />
    <glyph glyph-name="eight.sups" horiz-adv-x="637" 
d="M553 534.5q35 -33.5 35 -88.5q0 -73 -70.5 -113t-198.5 -40t-199 38.5t-71 107.5q0 50 38 83t109 44q-68 17 -99.5 48t-31.5 80q0 65 68 103t185 38t185 -37t68 -100q0 -91 -129 -112q76 -18 111 -51.5zM189 639q30 -20 96 -29l81 -11q61 15 86.5 36t25.5 54
q0 41 -42.5 64t-117.5 23q-73 0 -116 -22.5t-43 -60.5q0 -34 30 -54zM447 379.5q46 25.5 46 69.5q0 38 -33 59.5t-108 32.5l-79 11q-67 -13 -98 -38t-31 -64q0 -45 46.5 -70.5t128.5 -25.5t128 25.5z" />
    <glyph glyph-name="nine.sups" horiz-adv-x="634" 
d="M511.5 769q71.5 -66 71.5 -192q0 -138 -70.5 -211t-207.5 -73q-100 0 -165 39t-82 110l93 13q27 -96 157 -96q94 0 140.5 54t46.5 158q-28 -36 -82 -58t-130 -22q-110 0 -172.5 43.5t-62.5 125.5q0 53 32 92.5t90 61t135 21.5q135 0 206.5 -66zM421 578.5
q49 24.5 67 65.5q-30 129 -179 129q-77 0 -121.5 -29.5t-44.5 -83.5q0 -52 43 -79t118 -27q68 0 117 24.5z" />
    <glyph glyph-name="colon.case" horiz-adv-x="331" 
d="M237 432h-143v118h143v-118zM237 0h-143v118h143v-118z" />
    <glyph glyph-name="semicolon.case" horiz-adv-x="331" 
d="M237 432h-143v118h143v-118zM100 -91q39 10 55 32.5t16 56.5v2h-76v130h142v-112q0 -67 -26.5 -105.5t-87.5 -54.5z" />
    <glyph glyph-name="exclamdown.case" horiz-adv-x="375" 
d="M116 610v115h143v-115h-143zM226 518l24 -518h-125l24 518h77z" />
    <glyph glyph-name="questiondown.case" horiz-adv-x="742" 
d="M456 595h-134v115h134v-115zM442 490q0 -51 -28 -84t-81 -53l-86 -33q-53 -22 -79 -48t-26 -80q0 -35 25 -66t74.5 -50t118.5 -19q115 0 181.5 44t66.5 122q0 34 -8 58l105 -12q9 -22 9 -54q0 -71 -42 -125t-122 -84t-191 -30q-105 0 -177.5 28t-108.5 76t-36 108
q0 57 20.5 94t53 59t79.5 41l82 32q36 14 51.5 33t15.5 52v36h103v-45z" />
    <glyph glyph-name="periodcentered.case" horiz-adv-x="331" 
d="M237 313h-143v118h143v-118z" />
    <glyph glyph-name="bullet.case" horiz-adv-x="385" 
d="M121.5 305.5q-27.5 26.5 -27.5 68.5q0 44 28 71.5t70 27.5q43 0 71 -27t28 -72q0 -42 -28 -68.5t-71 -26.5t-70.5 26.5z" />
    <glyph glyph-name="slash.case" horiz-adv-x="657" 
d="M45 -87l465 877h102l-465 -877h-102z" />
    <glyph glyph-name="backslash.case" horiz-adv-x="657" 
d="M45 790h102l465 -877h-102z" />
    <glyph glyph-name="asterisk.ss04" horiz-adv-x="311" 
d="M125 617h-97l79 -57l-30 -93l79 57l79 -57l-31 93l79 57h-97l-30 93z" />
    <glyph glyph-name="period.tf" horiz-adv-x="402" 
d="M272 0h-143v118h143v-118z" />
    <glyph glyph-name="comma.tf" horiz-adv-x="402" 
d="M135 -91q39 10 55 32.5t16 56.5v2h-76v130h141v-112q0 -67 -26.5 -105.5t-87.5 -54.5z" />
    <glyph glyph-name="colon.tf" horiz-adv-x="402" 
d="M272 382h-143v118h143v-118zM272 0h-143v118h143v-118z" />
    <glyph glyph-name="semicolon.tf" horiz-adv-x="402" 
d="M272 382h-143v118h143v-118zM135 -91q39 10 55 32.5t16 56.5v2h-76v130h142v-112q0 -67 -26.5 -105.5t-87.5 -54.5z" />
    <glyph glyph-name="slash.tf" 
d="M118 -117l465 877h102l-465 -877h-102z" />
    <glyph glyph-name="parenleft.case" horiz-adv-x="377" 
d="M121 107q-61 123 -61 249q0 127 61 249.5t176 207.5l71 -44q-107 -90 -157 -192.5t-50 -220.5q0 -240 207 -413l-71 -45q-115 86 -176 209z" />
    <glyph glyph-name="parenright.case" horiz-adv-x="377" 
d="M9 -57q207 172 207 413q0 117 -49.5 220t-156.5 193l70 44q116 -85 176.5 -207t60.5 -250q0 -127 -60.5 -249.5t-176.5 -208.5z" />
    <glyph glyph-name="braceleft.case" horiz-adv-x="376" 
d="M161.5 -58q-49.5 32 -49.5 112v176q0 33 -5.5 52t-27 30.5t-65.5 12.5v69q44 1 65 11t26.5 28t5.5 52v154q0 85 50 120.5t148 35.5h54v-75h-40q-45 0 -70.5 -7.5t-38.5 -29t-13 -63.5v-130q0 -52 -18 -84.5t-66 -45.5q48 -14 65.5 -49t17.5 -86v-148q0 -40 14 -60
t40 -26.5t71 -6.5h38v-74h-53q-99 0 -148.5 32z" />
    <glyph glyph-name="braceright.case" horiz-adv-x="376" 
d="M12 -90v74h38q45 0 71.5 6.5t40.5 26.5t14 60v148q0 51 17.5 86t65.5 49q-48 13 -66 45.5t-18 84.5v130q0 42 -13 63.5t-39 29t-71 7.5h-39v75h54q98 0 148 -35.5t50 -120.5v-154q0 -34 5.5 -52t26 -28t64.5 -11v-69q-44 -1 -65 -12.5t-26.5 -30.5t-5.5 -52v-176
q0 -80 -50 -112t-149 -32h-53z" />
    <glyph glyph-name="bracketleft.case" horiz-adv-x="401" 
d="M116 799h273v-75h-184v-734h184v-75h-273v884z" />
    <glyph glyph-name="bracketright.case" horiz-adv-x="401" 
d="M12 -85v75h184v734h-184v75h273v-884h-273z" />
    <glyph glyph-name="parenleft.tf" 
d="M308.5 72.5q-60.5 122.5 -60.5 249.5t61 249t176 207l71 -44q-207 -172 -207 -413q0 -240 207 -413l-71 -44q-116 86 -176.5 208.5z" />
    <glyph glyph-name="parenright.tf" 
d="M248 -92q207 174 207 413q0 240 -207 413l70 44q116 -85 177 -207t61 -249q0 -126 -61 -249t-176 -209z" />
    <glyph glyph-name="hyphen.case" horiz-adv-x="634" 
d="M576 391v-83h-518v83h518z" />
    <glyph glyph-name="endash.case" horiz-adv-x="804" 
d="M746 388v-79h-688v79h688z" />
    <glyph glyph-name="emdash.case" horiz-adv-x="1086" 
d="M1029 388v-79h-971v79h971z" />
    <glyph glyph-name="underscore.case" horiz-adv-x="650" 
d="M650 -25v-69h-650v69h650z" />
    <glyph glyph-name="hyphen.tf" 
d="M710 320v-82h-618v82h618z" />
    <glyph glyph-name="underscore.tf" 
d="M803 -90v-69h-803v69h803z" />
    <glyph glyph-name="guillemotleft.case" horiz-adv-x="657" 
d="M34 346l246 207h111l-240 -206l238 -209h-114zM280 346l246 207h111l-240 -206l238 -209h-114z" />
    <glyph glyph-name="guillemotright.case" horiz-adv-x="657" 
d="M22 138l238 209l-240 206h111l246 -207l-241 -208h-114zM268 138l238 209l-240 206h111l246 -207l-241 -208h-114z" />
    <glyph glyph-name="guilsinglleft.case" horiz-adv-x="411" 
d="M34 346l246 207h111l-240 -206l238 -209h-114z" />
    <glyph glyph-name="guilsinglright.case" horiz-adv-x="411" 
d="M22 138l238 209l-240 206h111l246 -207l-241 -208h-114z" />
    <glyph glyph-name="parenleft.subs" horiz-adv-x="314" 
d="M114.5 -84.5q-43.5 90.5 -43.5 182.5q0 91 44 180.5t122 149.5l68 -29q-74 -64 -110 -140.5t-36 -160.5q0 -174 146 -307l-70 -30q-77 64 -120.5 154.5z" />
    <glyph glyph-name="parenright.subs" horiz-adv-x="314" 
d="M9 -209q146 131 146 307q0 84 -36.5 160.5t-109.5 140.5l68 29q78 -60 122 -149.5t44 -180.5t-43.5 -182t-120.5 -155z" />
    <glyph glyph-name="parenleft.sups" horiz-adv-x="314" 
d="M114.5 365.5q-43.5 90.5 -43.5 182.5t44 181t122 149l68 -29q-74 -64 -110 -140.5t-36 -160.5q0 -176 146 -307l-70 -30q-77 64 -120.5 154.5z" />
    <glyph glyph-name="parenright.sups" horiz-adv-x="314" 
d="M9 241q146 131 146 307q0 84 -36.5 160.5t-109.5 140.5l68 29q78 -60 122 -149.5t44 -180.5t-43.5 -182t-120.5 -155z" />
    <glyph glyph-name="uni0E3F" unicode="&#xe3f;" horiz-adv-x="929" 
d="M825 302.5q38 -40.5 38 -110.5q0 -91 -67.5 -141.5t-186.5 -50.5h-110v-101h-60v101h-323v695h323v99h60v-99h98q120 0 183 -46t63 -133q0 -61 -35 -102t-100 -57q79 -14 117 -54.5zM214 391h225v226h-225v-226zM499 617v-226h94q72 0 109 30t37 89q0 52 -37.5 79.5
t-108.5 27.5h-94zM439 78v238h-225v-238h225zM720 108q39 30 39 88q0 59 -40.5 89.5t-117.5 30.5h-102v-238h105q77 0 116 30z" />
    <glyph glyph-name="uni20BA" unicode="&#x20ba;" horiz-adv-x="765" 
d="M746 228q-55 -228 -314 -228h-287v271l-116 -23v61l116 23v89l-116 -23v61l116 23v213h101v-192l386 77v-62l-386 -77v-88l386 77v-62l-386 -77v-205h170q104 0 157.5 43.5t76.5 113.5z" />
    <glyph glyph-name="uni20BD" unicode="&#x20bd;" horiz-adv-x="809" 
d="M238 276v-78h311v-61h-311v-137h-101v137h-117v61h117v78h-116v76h116v343h398q113 0 179.5 -56t66.5 -151q0 -98 -66.5 -155t-179.5 -57h-297zM238 352h290q68 0 108 35.5t40 95.5q0 58 -40.5 92.5t-107.5 34.5h-290v-258z" />
    <glyph glyph-name="uni20B9" unicode="&#x20b9;" horiz-adv-x="801" 
d="M770 625h-249q54 -39 61 -110h188v-60h-188q-20 -180 -291 -181h-65l327 -274h-134l-340 296v49h203q96 0 143 26t55 84h-401v60h401q-18 110 -162 110h-239v70h691v-70z" />
    <glyph glyph-name="uni20A9" unicode="&#x20a9;" horiz-adv-x="1382" 
d="M1249 447h96v-57h-118l-32 -81h150v-58h-173l-99 -251h-114l-112 251h-312l-113 -251h-113l-99 251h-173v58h150l-32 81h-118v57h95l-98 248h99l94 -248h305l112 248h94l112 -248h305l93 248h99zM622 447h138l-21 46q-21 47 -30.5 72.5t-15.5 50.5h-5q-5 -23 -14 -47.5
t-31 -75.5zM279 309h190l37 81h-258zM821 309l-36 81h-188l-36 -81h260zM1134 390h-258l37 -81h190zM443 251h-143l20 -52q33 -86 45 -129h2q5 21 15 45.5t35 78.5zM1082 251h-143l26 -57q25 -54 35 -78.5t15 -45.5h2q12 43 45 129z" />
    <glyph glyph-name="uni0E3F.case" horiz-adv-x="929" 
d="M825 309q38 -41 38 -113q0 -93 -67 -144.5t-187 -51.5h-110v-100h-60v100h-323v709h323v99h60v-99h98q120 0 183 -46.5t63 -135.5q0 -61 -35 -103.5t-100 -59.5q79 -14 117 -55zM214 399h225v232h-225v-232zM499 631v-232h94q72 0 109 31t37 91q0 54 -37.5 82t-108.5 28
h-94zM439 78v245h-225v-245h225zM720 109q39 31 39 92q0 60 -40.5 91t-117.5 31h-102v-245h105q77 0 116 31z" />
    <glyph glyph-name="currency.case" horiz-adv-x="711" 
d="M608 207l64 -56l-47 -44l-68 58q-80 -47 -197 -47q-122 0 -202 50l-72 -61l-47 43l69 60q-53 58 -53 143q0 83 53 144l-69 60l47 43l73 -61q81 49 201 49q116 0 195 -46l70 59l48 -43l-67 -57q57 -60 57 -148q0 -86 -55 -146zM198 236q58 -43 162 -43t161.5 43t57.5 117
t-57.5 117t-161.5 43t-162 -43t-58 -117t58 -117z" />
    <glyph glyph-name="dollar.case" horiz-adv-x="879" 
d="M761 330q63 -50 63 -141q0 -104 -92 -158.5t-267 -54.5h-1v-77h-61v79q-154 8 -245.5 64t-122.5 161l105 22q45 -147 263 -165v260l-87 8q-124 13 -185.5 63t-61.5 141q0 92 87.5 146t246.5 57v75h61v-76q149 -5 231 -53.5t117 -150.5l-100 -29q-26 75 -83 111t-165 42
v-251l102 -9q132 -14 195 -64zM403 409v246q-118 -1 -173 -30.5t-55 -88.5q0 -55 45.5 -84.5t144.5 -39.5zM658.5 88.5q59.5 30.5 59.5 98.5q0 54 -44 83t-141 39l-69 6v-257h3q132 0 191.5 30.5z" />
    <glyph glyph-name="Euro.case" horiz-adv-x="954" 
d="M703.5 95.5q73.5 33.5 124.5 105.5l86 -42q-55 -85 -152 -134t-225 -49q-180 0 -286.5 79.5t-138.5 205.5h-106v61h96q-2 28 -2 42q0 13 2 41h-96v61h108q22 78 77.5 138.5t145.5 95t210 34.5q128 0 223 -44.5t146 -121.5l-95 -47q-45 63 -113 95.5t-167 32.5
q-132 0 -212.5 -49t-108.5 -134h453v-61h-467q-2 -26 -2 -40q0 -15 2 -43h467v-61h-454q30 -92 111.5 -145.5t209.5 -53.5q90 0 163.5 33.5z" />
    <glyph glyph-name="uni20BA.case" horiz-adv-x="765" 
d="M746 233q-55 -233 -314 -233h-287v277l-116 -24v63l116 23v92l-116 -24v61l116 24v219h101v-198l386 79v-62l-386 -79v-91l386 78v-61l-386 -79v-212h170q104 0 157.5 44.5t76.5 116.5z" />
    <glyph glyph-name="uni20BD.case" horiz-adv-x="809" 
d="M238 283v-81h311v-61h-311v-141h-101v141h-117v61h117v81h-116v76h116v351h398q113 0 179.5 -56.5t66.5 -153.5q0 -100 -66.5 -158.5t-179.5 -58.5h-297zM238 359h290q68 0 108 37t40 99q0 60 -40 94.5t-108 34.5h-290v-265z" />
    <glyph glyph-name="uni20B9.case" horiz-adv-x="801" 
d="M770 640h-250q54 -38 63 -114h187v-60h-188q-11 -91 -83.5 -138t-207.5 -47h-65l327 -281h-134l-340 303v50h203q96 0 143 26.5t55 86.5h-401v60h401q-17 114 -162 114h-239v70h691v-70z" />
    <glyph glyph-name="sterling.case" horiz-adv-x="838" 
d="M820 159q-15 -85 -77.5 -134t-158.5 -49q-34 0 -63.5 3.5t-81.5 12.5q-57 9 -99 14t-93 5q-102 0 -207 -19l-21 66q163 48 163 184q0 50 -13 94h-124v66h105q-13 50 -13 94q0 112 83 175t232 63q125 0 204.5 -45t106.5 -131l-98 -25q-20 59 -75 90t-139 31
q-210 0 -210 -155q0 -48 14 -97h303v-66h-284q10 -38 10 -75q0 -65 -29 -109t-91 -72q58 13 116 13q41 0 75.5 -3.5t80.5 -10.5q85 -13 144 -13q61 0 99.5 28.5t48.5 80.5z" />
    <glyph glyph-name="uni0E3F.tf.case" 
d="M703.5 309.5q40.5 -43.5 40.5 -113.5q0 -97 -66 -146.5t-187 -49.5h-70v-89h-64v89h-273v710h273v86h64v-86h66q113 0 175 -46t62 -137q0 -64 -36 -105.5t-99 -57.5q74 -11 114.5 -54.5zM181 631v-233h176v233h-176zM421 631v-233h54q72 0 109 31t37 96q0 106 -137 106
h-63zM357 78v245h-176v-245h176zM603 106.5q38 28.5 38 94.5q0 61 -41.5 91.5t-116.5 30.5h-62v-245h65q79 0 117 28.5z" />
    <glyph glyph-name="currency.tf.case" 
d="M654 207l64 -56l-47 -44l-68 58q-80 -47 -197 -47q-122 0 -202 50l-72 -61l-47 43l69 60q-53 58 -53 143q0 83 53 144l-69 60l47 43l73 -61q81 49 201 49q116 0 195 -46l70 59l48 -43l-67 -57q57 -60 57 -148q0 -86 -55 -146zM244 236q58 -43 162 -43t161.5 43t57.5 117
t-57.5 117t-161.5 43t-162 -43t-58 -117t58 -117z" />
    <glyph glyph-name="dollar.tf.case" 
d="M448 -24v-77h-60v78q-146 9 -236 65.5t-118 161.5l104 22q42 -147 250 -165v263l-78 11q-122 18 -178.5 67t-56.5 135q0 91 79.5 141.5t233.5 54.5v77h60v-78q129 -4 201 -47.5t101 -130.5l-100 -29q-21 62 -68 91.5t-134 34.5v-246l94 -14q120 -18 174 -66t54 -137
q0 -209 -322 -212zM388 414v238q-108 -1 -157.5 -28.5t-49.5 -86.5q0 -35 16 -56.5t52 -36t101 -24.5zM615.5 88q49.5 30 49.5 99q0 53 -33.5 80t-112.5 38l-71 10v-257h5q113 0 162.5 30z" />
    <glyph glyph-name="Euro.tf.case" 
d="M584.5 89q55.5 34 94.5 99l78 -38q-45 -83 -122.5 -128.5t-177.5 -45.5q-140 0 -229.5 77t-114.5 212h-74v57h67q-2 30 -2 45v1q0 25 1 37h-66v57h75q27 125 120 198.5t233 73.5q98 0 172.5 -40t121.5 -118l-88 -43q-36 63 -87 93t-125 30q-101 0 -163 -50.5t-82 -143.5
h307v-57h-315q-1 -12 -1 -36v-1q0 -16 2 -46h314v-57h-306q21 -100 83 -155t160 -55q69 0 124.5 34z" />
    <glyph glyph-name="uni20BA.tf.case" 
d="M742 233q-55 -233 -311 -233h-284v276l-113 -23v63l113 23v91l-113 -23v62l113 23v218h101v-197l380 78v-61l-380 -79v-91l380 78v-62l-380 -79v-211h167q104 0 156.5 44.5t74.5 116.5z" />
    <glyph glyph-name="uni20BD.tf.case" 
d="M242 287v-90h303v-56h-303v-141h-98v141h-107v56h107v90h-106v68h106v355h353q113 0 179 -56.5t66 -153.5q0 -64 -30 -112t-85 -74.5t-130 -26.5h-255zM242 355h249q69 0 109.5 38t40.5 102t-40.5 101t-109.5 37h-249v-278z" />
    <glyph glyph-name="uni20B9.tf.case" 
d="M734 640h-251q55 -39 64 -119h187v-59h-188q-11 -82 -80 -135t-207 -53h-42l346 -274h-132l-357 295v49h174q99 0 144 30.5t53 87.5h-371v59h371q-14 119 -161 119h-210v70h660v-70z" />
    <glyph glyph-name="sterling.tf.case" 
d="M764 159q-15 -86 -77.5 -134.5t-156.5 -48.5q-27 0 -50.5 3.5t-63.5 12.5q-45 9 -77.5 14t-72.5 5q-103 0 -208 -19l-20 66q81 23 122 69t41 115q0 47 -14 96h-124v64h105q-14 49 -14 95q0 112 75 174.5t209 62.5q112 0 183 -45t95 -131l-98 -23q-16 61 -63 93.5
t-118 32.5q-90 0 -134 -40t-44 -122q0 -48 14 -97h230v-64h-211q10 -38 10 -77q0 -66 -29 -109.5t-91 -71.5q51 8 116 8q41 0 76.5 -6t41.5 -7q65 -13 109 -13q62 0 100.5 29.5t47.5 83.5z" />
    <glyph glyph-name="uni20A9.tf.case" 
d="M717 455h46v-51h-56l-17 -92h73v-52h-83l-49 -260h-114l-48 260h-134l-48 -260h-114l-49 260h-83v52h73l-17 92h-56v51h46l-48 255h88l41 -255h133l49 255h104l48 -255h134l41 255h88zM370 455h64l-24 129q-5 27 -6 49h-4q-1 -23 -6 -49zM191 312h83l18 92h-116zM460 312
l-17 92h-82l-17 -92h116zM627 404h-115l17 -92h84zM264 260h-65l22 -137q6 -40 7 -53h2l8 53zM604 260h-65l26 -137q6 -34 8 -53h2q1 17 7 53z" />
    <glyph glyph-name="yen.tf.case" 
d="M454 289h256v-57h-259v-73h259v-58h-259v-101h-99v101h-259v58h259v73h-259v57h256l-330 421h117l218 -289q24 -31 47 -79h2q21 47 46 79l218 289h117z" />
    <glyph glyph-name="uni20A9.case" horiz-adv-x="1382" 
d="M1249 457h96v-58h-118l-32 -84h150v-58h-173l-99 -257h-114l-112 257h-313l-112 -257h-113l-100 257h-172v58h150l-33 84h-117v58h95l-98 253h99l93 -253h306l112 253h94l112 -253h305l93 253h99zM622 457h138l-21 49q-21 47 -30.5 73.5t-15.5 52.5h-5q-5 -24 -14 -49
t-31 -77zM278 315h192l37 84h-260zM822 315l-36 84h-190l-36 -84h262zM1134 399h-259l37 -84h191zM444 257h-144l20 -55q34 -90 45 -131h2q5 20 17 50t33 75zM1082 257h-144l27 -61q21 -45 33 -75t17 -50h2q11 41 45 131z" />
    <glyph glyph-name="yen.case" horiz-adv-x="870" 
d="M497 299h274v-62h-287v-71h287v-62h-287v-104h-98v104h-287v62h287v71h-287v62h274l-374 411h122l214 -239q61 -66 99 -121h3q38 55 99 121l214 239h121z" />
    <glyph glyph-name="uni0E3F.tf" 
d="M703.5 302.5q40.5 -42.5 40.5 -110.5q0 -96 -66 -144t-187 -48h-70v-107h-64v107h-273v695h273v86h64v-86h66q113 0 175 -45t62 -134q0 -62 -36 -103t-99 -57q74 -11 114.5 -53.5zM181 617v-227h176v227h-176zM421 617v-227h54q72 0 109 30t37 94q0 103 -137 103h-63z
M357 78v237h-176v-237h176zM603 105q38 27 38 91q0 60 -41.5 89.5t-116.5 29.5h-62v-237h65q79 0 117 27z" />
    </font>
</defs>
</svg>
